Deadwind 2018 S01 720p

Torrent Details

Deadwind 2018 S01 720p

NAME
Deadwind 2018 S01 720p.torrent
CATEGORY
Television
INFOHASH
10c58dc57fa994a67bff2bf7b76e81d4e4887ae7
SIZE
10.2 GB in 12 files
ADDED
Uploaded on 09-07-2020 by our crawler pet called "Spidey".
SWARM
1 seeders & 0 peers
RATING
No votes yet.

Please login to vote for this torrent.


Description

Информация о фильме

Название: Карппи / Встречный ветер

Оригинальное название: Karppi / Deadwind

Год выхода: 2018

Жанр: триллер, драма, криминал, детектив

Режиссер: Рик Йокела

В ролях: Пихла Виитала, Лаури Тилканен, Яни Воланен, Томми Корпела, Пирьо Лонка, Рику Ниеминен, Памела Тола, Йонна Ярнефелт, Раймо Гренберг, Микко Ноусиайнен



О фильме:

София Карппи давно работает в полиции в отделе по расследованию убийств. Когда умер её любимый супруг, она не могла найти себе места, а потом сконцентрировала всё своё внимание на детях. Но женщина не смогла долго оставаться дома, поэтому вернулась к работе. Ей дали в напарники молодого парня по имени Сакари, прежде работавшего в отделе по финансовым преступлениям. Вскоре на стройке, рядом с разбросанной женской одеждой, полицейские находят тело молодой девушки. Взявшись за расследование, София даже представить себе не могла, что столкнется с невероятно запутанной вереницей событий, которые раз и навсегда изменят её жизнь. Но будут ли эти перемены к лучшему?







Страна: Финляндия, Германия

Студия: About Premium Content, Dionysos Films, H&V Entertainment

Продолжительность: 12 x ~ 00:45:00

Перевод: Профессиональный многоголосый, закадровый [HDRezka Studio]

Реклама: отсутствует



Файл

Кодек: H.264

Качество: WEBRip 720p

Видео: AVC, 1280x720 (16:9), 25 fps ~ 2300 Kbps

Звук: AC3, 48 KHz, 2 ch ~ 192 Kb/s

Субтитры: отсутствуют



MI:

General

Unique ID : 171306983917271620873252551083091213935 (0x80E0866675646654A6A70D9471CEBE6F)

Complete name : J:wotDeadwind.2018.S01.720pDeadwind.S01E01.WEBRip.720p.2.0.HDREZKA.STUDIO.mkv

Format : Matroska

Format version : Version 4 / Version 2

File size : 821 MiB

Duration : 44mn 44s

Overall bit rate mode : Variable

Overall bit rate : 2 567 Kbps

Encoded date : UTC 2020-07-09 07:02:02

Writing application : mkvmerge v7.7.0 ('Six Voices') 32bit built on Feb 28 2015 23:23:00

Writing library : libebml v1.3.1 + libmatroska v1.4.2

_STATISTICS_WRITING_APP : mkvmerge v7.7.0 ('Six Voices') 32bit built on Feb 28 2015 23:23:00

_STATISTICS_WRITING_DATE_UTC : 2020-07-09 07:02:02

_STATISTICS_TAGS : BPS DURATION NUMBER_OF_FRAMES NUMBER_OF_BYTES

DURATION : 00:44:44.000000000

NUMBER_OF_FRAMES : 83875

NUMBER_OF_BYTES : 64416000



Video

ID : 1

Format : AVC

Format/Info : Advanced Video Codec

Format profile : [email protected]

Format settings, CABAC : Yes

Format settings, ReFrames : 1 frame

Codec ID : V_MPEG4/ISO/AVC

Duration : 44mn 44s

Bit rate mode : Variable

Bit rate : 2 324 Kbps

Maximum bit rate : 2 000 Kbps

Width : 1 280 pixels

Height : 720 pixels

Display aspect ratio : 16:9

Frame rate mode : Constant

Frame rate : 25.000 fps

Color space : YUV

Chroma subsampling : 4:2:0

Bit depth : 8 bits

Scan type : Progressive

Bits/(Pixel*Frame) : 0.101

Stream size : 744 MiB (91%)

Language : English

Default : Yes

Forced : No



Audio

ID : 2

Format : AC-3

Format/Info : Audio Coding 3

Mode extension : CM (complete main)

Format settings, Endianness : Big

Codec ID : A_AC3

Duration : 44mn 44s

Bit rate mode : Constant

Bit rate : 192 Kbps

Channel(s) : 2 channels

Channel positions : Front: L R

Sampling rate : 48.0 KHz

Compression mode : Lossy

Delay relative to video : 16ms

Stream size : 61.4 MiB (7%)

Title : hdrezka

Language : Russian

Default : Yes

Forced : No





Скриншоты

Discussion

Comments 0

Post Your Comment

Files in this torrent

FILENAMESIZE
Deadwind.S01E01.WEBRip.720p.2.0.HDREZKA.STUDIO.mkv821.3 MB
Deadwind.S01E02.WEBRip.720p.2.0.HDREZKA.STUDIO.mkv828.2 MB
Deadwind.S01E03.WEBRip.720p.2.0.HDREZKA.STUDIO.mkv781.3 MB
Deadwind.S01E04.WEBRip.720p.2.0.HDREZKA.STUDIO.mkv844.1 MB
Deadwind.S01E05.WEBRip.720p.2.0.HDREZKA.STUDIO.mkv815.1 MB
Deadwind.S01E06.WEBRip.720p.2.0.HDREZKA.STUDIO.mkv1 GB
Deadwind.S01E07.WEBRip.720p.2.0.HDREZKA.STUDIO.mkv960.3 MB
Deadwind.S01E08.WEBRip.720p.2.0.HDREZKA.STUDIO.mkv813.4 MB
Deadwind.S01E09.WEBRip.720p.2.0.HDREZKA.STUDIO.mkv699.3 MB
Deadwind.S01E10.WEBRip.720p.2.0.HDREZKA.STUDIO.mkv744.9 MB
Deadwind.S01E11.WEBRip.720p.2.0.HDREZKA.STUDIO.mkv1 GB
Deadwind.S01E12.WEBRip.720p.2.0.HDREZKA.STUDIO.mkv1 GB

Alternative Torrents for 'Deadwind'.

TORRENT NAMEADDEDSIZESEEDSPEERSHEALTH
7/19/20208.4 GB103
7/7/20202.9 GB50
7/10/20205.3 GB10
7/9/202010.2 GB10
7/7/20206.2 GB11
7/3/202010.2 GB12
7/1/20208.8 GB11
7/1/2020289 MB10
7/12/2020263 MB00
7/2/20205.1 GB01
7/1/20203.4 GB01
7/1/20203.3 GB01
7/1/20205.3 GB00
7/1/2020342 MB00
7/1/2020257 MB00