The Outpost 2020 WEB H 265 2160p

Torrent Details

The Outpost 2020 WEB H 265 2160p

NAME
The Outpost 2020 WEB H 265 2160p.torrent
CATEGORY
Movies
INFOHASH
18511bf2be224b40bc1b56d93c917813d3d31e07
SIZE
11 GB in 1 file
ADDED
Uploaded on 09-07-2020 by our crawler pet called "Spidey".
SWARM
4 seeders & 1 peers
RATING
No votes yet.

Please login to vote for this torrent.


Description

Информация о фильме

Название: Форпост

Оригинальное название: The Outpost

Год выхода: 2020

Жанр: Боевик, военный, драма, история





Режиссер: Род Лури





В ролях: Скотт Иствуд, Орландо Блум, Калеб Лэндри Джонс, Майло Гибсон, Бобби Локвуд, Селина Синден, Джейкоб Скипио, Джек Кеси, Тейлор Джон Смит, Джеймс Джаггер





О фильме:

Действия фильма происходят 3 октября 2009 года в Афганистане. У подножия гор, недалеко от поселения Кадмеш, расположился американский Форпост. Тай Картер и сержант Ромеш Клинтон имеют в своем распоряжении пятьдесят три бойца. Никто из них не ожидал, что им предстоит отбивать прорыв многочисленной банды талибов. Четыреста человек готовятся к наступлению, и солдаты просто не могут отдать позиции. Несмотря на неравные силы, бойцы готовы дать отпор, действуя строго по уставу. Им не приходится ждать помощи, поскольку следующая база слишком далека от них. Смогут ли они выполнить свой долг и отбить нападение, и какую цену им предстоит заплатить?











Страна: США, Болгария

Продолжительность: 02:03:11

Перевод: Профессиональный (многоголосый закадровый) | HDRezka Studio





Файл

Кодек: H.265

Качество: WEBRip-HEVC 2160p

Видео: HEVC, 3840x2160 (16:9), 23.976 fps, 11.6 Mb/s

Аудио 1: AC3, 48.0 kHz, 6 ch, 448 kb/s | RUS

Аудио 2: AC3, 48.0 kHz, 6 ch, 640 kb/s | ENG

Субтитры: Русские (Forced), английские (Full, SDH)



Присутствует ненормативная лексика



Рекламы нет



MIGeneral

Unique ID : 225912597111553749293731025078897433163 (0xA9F52EFDBB646183BD81E2AB36295A4B)

Complete name : The.Outpost.2020.WEB.H.265.2160p.mkv

Format : Matroska

Format version : Version 4

File size : 11.0 GiB

Duration : 2 h 3 min

Overall bit rate : 12.7 Mb/s

Encoded date : UTC 2020-07-09 11:51:01

Writing application : mkvmerge v8.3.0 ('Over the Horizon') 64bit

Writing library : libebml v1.3.1 + libmatroska v1.4.2



Video

ID : 1

Format : HEVC

Format/Info : High Efficiency Video Coding

Format profile : [email protected]@Main

Codec ID : V_MPEGH/ISO/HEVC

Duration : 2 h 3 min

Bit rate : 11.6 Mb/s

Width : 3 840 pixels

Height : 2 160 pixels

Display aspect ratio : 16:9

Frame rate mode : Constant

Frame rate : 23.976 (24000/1001) FPS

Color space : YUV

Chroma subsampling : 4:2:0

Bit depth : 8 bits

Bits/(Pixel*Frame) : 0.059

Stream size : 10.0 GiB (91%)

Writing library : x265 3.0:[Linux][GCC 4.8.5][64 bit] 8bit

Encoding settings : cpuid=1111039 / frame-threads=6 / wpp / no-pmode / no-pme / no-psnr / no-ssim / log-level=2 / input-csp=1 / input-res=3840x2160 / interlace=0 / total-frames=0 / level-idc=0 / high-tier=1 / uhd-bd=0 / ref=3 / no-allow-non-conformance / no-repeat-headers / annexb / no-aud / no-hrd / info / hash=0 / no-temporal-layers / no-open-gop / min-keyint=4 / keyint=48 / gop-lookahead=0 / bframes=4 / b-adapt=2 / b-pyramid / bframe-bias=0 / rc-lookahead=80 / lookahead-slices=4 / scenecut=0 / radl=0 / no-splice / no-intra-refresh / ctu=64 / min-cu-size=8 / rect / no-amp / max-tu-size=32 / tu-inter-depth=1 / tu-intra-depth=1 / limit-tu=0 / rdoq-level=2 / dynamic-rd=0.00 / no-ssim-rd / signhide / no-tskip / nr-intra=0 / nr-inter=0 / no-constrained-intra / strong-intra-smoothing / max-merge=3 / limit-refs=3 / limit-modes / me=2 / subme=3 / merange=64 / temporal-mvp / weightp / no-weightb / no-analyze-src-pics / deblock=0:0 / no-sao / no-sao-non-deblock / rd=4 / no-early-skip / no-rskip / no-fast-intra / no-tskip-fast / no-cu-lossless / no-b-intra / no-splitrd-skip / rdpenalty=0 / psy-rd=4.00 / psy-rdoq=10.00 / no-rd-refine / no-lossless / cbqpoffs=0 / crqpoffs=0 / rc=abr / bitrate=12000 / qcomp=0.60 / qpstep=1 / stats-write=0 / stats-read=0 / vbv-maxrate=18000 / vbv-bufsize=18000 / vbv-init=0.9 / ipratio=1.10 / pbratio=1.00 / aq-mode=0 / aq-strength=0.00 / no-cutree / zone-count=0 / no-strict-cbr / qg-size=32 / rc-grain / qpmax=69 / qpmin=0 / const-vbv / sar=1 / overscan=0 / videoformat=5 / range=0 / colorprim=1 / transfer=1 / colormatrix=1 / chromaloc=0 / display-window=0 / max-cll=0,0 / min-luma=0 / max-luma=255 / log2-max-poc-lsb=8 / vui-timing-info / vui-hrd-info / slices=1 / no-opt-qp-pps / no-opt-ref-list-length-pps / no-multi-pass-opt-rps / scenecut-bias=0.05 / no-opt-cu-delta-qp / no-aq-motion / no-hdr / no-hdr-opt / no-dhdr10-opt / no-idr-recovery-sei / analysis-reuse-level=5 / scale-factor=0 / refine-intra=0 / refine-inter=0 / refine-mv=0 / refine-ctu-distortion=0 / no-limit-sao / ctu-info=0 / no-lowpass-dct / refine-analysis-type=0 / copy-pic=1 / max-ausize-factor=1.0 / no-dynamic-refine / no-single-sei / no-hevc-aq / qp-adaptation-range=1.00

Default : Yes

Forced : No

Color range : Limited

Color primaries : BT.709

Transfer characteristics : BT.709

Matrix coefficients : BT.709



Audio #1

ID : 2

Format : AC-3

Format/Info : Audio Coding 3

Commercial name : Dolby Digital

Codec ID : A_AC3

Duration : 2 h 3 min

Bit rate mode : Constant

Bit rate : 448 kb/s

Channel(s) : 6 channels

Channel layout : L R C LFE Ls Rs

Sampling rate : 48.0 kHz

Frame rate : 31.250 FPS (1536 SPF)

Bit depth : 16 bits

Compression mode : Lossy

Stream size : 395 MiB (4%)

Title : HDRezka Studio

Language : Russian

Service kind : Complete Main

Default : Yes

Forced : No



Audio #2

ID : 3

Format : AC-3

Format/Info : Audio Coding 3

Commercial name : Dolby Digital

Codec ID : A_AC3

Duration : 2 h 3 min

Bit rate mode : Constant

Bit rate : 640 kb/s

Channel(s) : 6 channels

Channel layout : L R C LFE Ls Rs

Sampling rate : 48.0 kHz

Frame rate : 31.250 FPS (1536 SPF)

Bit depth : 16 bits

Compression mode : Lossy

Stream size : 564 MiB (5%)

Language : English

Service kind : Complete Main

Default : No

Forced : No



Text #1

ID : 4

Format : UTF-8

Codec ID : S_TEXT/UTF8

Codec ID/Info : UTF-8 Plain Text

Duration : 1 h 53 min

Bit rate : 4 b/s

Count of elements : 37

Stream size : 3.32 KiB (0%)

Title : Forced

Language : Russian

Default : Yes

Forced : Yes



Text #2

ID : 5

Format : UTF-8

Codec ID : S_TEXT/UTF8

Codec ID/Info : UTF-8 Plain Text

Duration : 2 h 1 min

Bit rate : 78 b/s

Count of elements : 2805

Stream size : 69.8 KiB (0%)

Title : Full

Language : English

Default : No

Forced : No



Text #3

ID : 6

Format : UTF-8

Codec ID : S_TEXT/UTF8

Codec ID/Info : UTF-8 Plain Text

Duration : 2 h 1 min

Bit rate : 82 b/s

Count of elements : 3041

Stream size : 73.2 KiB (0%)

Title : SDH

Language : English

Default : No

Forced : NoСкриншоты

Discussion

Comments 0

Post Your Comment

Files in this torrent

FILENAMESIZE
The.Outpost.2020.WEB.H.265.2160p.mkv11 GB

Alternative Torrents for 'Outpost'.

TORRENT NAMEADDEDSIZESEEDSPEERSHEALTH
7/4/2020897 MB2117
7/3/20201.1 GB19715
7/3/20202.3 GB16831
8/7/20202.3 GB1448
8/1/20202 GB1032
8/7/20201.1 GB8910
12/5/20201.4 GB816
7/3/20202.3 GB5711
11/8/20201.4 GB563
8/8/20201.4 GB472
8/3/20205.1 GB453
1/31/20211.5 GB381
10/18/20202.2 GB363
11/22/20206 GB3554
1/7/20214.4 GB3432