[Deadmau- RAWS] Глейпнир S01 2020 RUS JAP WEB-DLRip Deadmauvlad

Torrent Details


[Deadmau- RAWS] Глейпнир S01 2020 RUS JAP WEB-DLRip Deadmauvlad

NAME
[Deadmau- RAWS] Глейпнир S01 2020 RUS JAP WEB-DLRip Deadmauvlad.torrent
CATEGORY
Anime
INFOHASH
701f157de63afb4c661cb90e6601b09f2b154bb5
SIZE
4.2 GB in 26 files
ADDED
Uploaded on 09-07-2020 by our crawler pet called "Spidey".
SWARM
0 seeders & 0 peers
RATING
No votes yet.

Please login to vote for this torrent.


Description

Информация о фильме

Название: Глейпнир

Оригинальное название: Gleipnir

Год выхода: 2020

Жанр: экшен, детектив, сверхъестественное, этти, сейнен

Автор оригинала: Такэда Сун

Снято по манге: Глейпнир

Режиссер: Кадзухиро Ёнэда

В ролях: Нао Тояма, Нацуки Ханаэ, Сидзука Ито, Такума Тэрасима, Кана Ханадзава, Ё Таити, Мику Ито, Такахиро Сакурай, Хироки Ясумото



О фильме: «Почему же я принимаю это обличье?» Сюити Кагая — юноша с опасной для всего мира способностью: он умеет превращаться в странный звериный костюм. И однажды его сила привлекает внимание таинственной девушки по имени Клэр… Встреча с ней окончательно рушит мирную жизнь Сюити: на него объявляют охоту чудовища — люди с такой же способностью, как у парня. Став единым целым, Сюити с Клэр решают сражаться за свою судьбу. Они вступают в борьбу за «монету», способную вызвать великий катаклизм!







Страна: Япония

Продолжительность: 13 серий x ~ 00:24:00

Перевод: Профессиональный (многоголосый, закадровый) | StudioBand [Wakanim]



Файл

Кодек: XviD

Качество: WEBRip | WEB-DL 1080p |

Формат видео: AVI / XviD

Видео: 720x400 (16:9), 23.976 fps, 1 573 kb/s (0.228 bit/pixel)

Аудио №1: AC3, 48.0 kHz, 2 ch, 192 kb/s, CBR | | StudioBand

Аудио №2: AC3, 48.0 kHz, 2 ch, 192 kb/s, CBR | | Japan (Оригинал)

Субтитры: Русские





MediaInfo

General

Complete name : [Deadmau- RAWS] Gleipnir.S01.2020.RUS.JAP.WEBRip.Deadmauvlad.Ep.01.avi

Format : AVI

Format/Info : Audio Video Interleave

File size : 334 MiB

Duration : 23 min 39 s

Overall bit rate : 1 972 kb/s

Movie name : [Deadmau- RAWS] Глейпнир.S01.2020.RUS.JAP.WEB-DLRip.Deadmauvlad.Ep.01

Director : Encoder by Deadmauvlad

Genre : этти, сейнен

Writing application : VirtualDubMod 1.5.10.3 | www.virtualdub-fr.org || (build 2550/release)

Original source form/Name : Аниме

Copyright : Encoder by Deadmauvlad

Comment : Encoder by Deadmauvlad



Video

ID : 0

Format : MPEG-4 Visual

Format profile : Advanced [email protected]

Format settings : BVOP1 / Custom Matrix

Format settings, BVOP : 1

Format settings, QPel : No

Format settings, GMC : No warppoints

Format settings, Matrix : Custom

Codec ID : XVID

Codec ID/Hint : XviD

Duration : 23 min 39 s

Bit rate : 1 573 kb/s

Width : 720 pixels

Height : 400 pixels

Display aspect ratio : 16:9

Frame rate : 23.976 (24000/1001) FPS

Color space : YUV

Chroma subsampling : 4:2:0

Bit depth : 8 bits

Scan type : Progressive

Compression mode : Lossy

Bits/(Pixel*Frame) : 0.228

Stream size : 266 MiB (80%)

Writing library : XviD 73



Audio #1

ID : 1

Format : AC-3

Format/Info : Audio Coding 3

Commercial name : Dolby Digital

Codec ID : 2000

Duration : 23 min 39 s

Bit rate mode : Constant

Bit rate : 192 kb/s

Channel(s) : 2 channels

Channel layout : L R

Sampling rate : 48.0 kHz

Frame rate : 31.250 FPS (1536 SPF)

Bit depth : 16 bits

Compression mode : Lossy

Stream size : 32.5 MiB (10%)

Alignment : Split accross interleaves

Interleave, duration : 42 ms (1.00 video frame)

Interleave, preload duration : 500 ms



Audio #2

ID : 2

Format : AC-3

Format/Info : Audio Coding 3

Commercial name : Dolby Digital

Codec ID : 2000

Duration : 23 min 39 s

Bit rate mode : Constant

Bit rate : 192 kb/s

Channel(s) : 2 channels

Channel layout : L R

Sampling rate : 48.0 kHz

Frame rate : 31.250 FPS (1536 SPF)

Bit depth : 16 bits

Compression mode : Lossy

Stream size : 32.5 MiB (10%)

Alignment : Split accross interleaves

Interleave, duration : 42 ms (1.00 video frame)

Interleave, preload duration : 500 ms



Список эпизодов:01. Внутри меня.

02. Смысл пустоты.

03. Елена.

04. Желание перевоплотиться.

05. Жуткий враг.

06. Коллекционеры.

07. Метаморфоза.

08. Тень воспоминаний.

09. Знак столкновения.

10. Прекрасный цветок.

11. Плата за решимость.

12. Там, где дано обещание.

13. Вдвоём одно целое.



Скриншоты Скриншоты







Релиз / Автор рипа: Deadmauvlad ×_×

Discussion

Comments 0

Post Your Comment

Files in this torrent

FILENAMESIZE
RUS subs/[Deadmau- RAWS] Gleipnir.S01.2020.RUS.JAP.WEBRip.Deadmauvlad.Ep.01.ass27.1 KB
RUS subs/[Deadmau- RAWS] Gleipnir.S01.2020.RUS.JAP.WEBRip.Deadmauvlad.Ep.02.ass31.2 KB
RUS subs/[Deadmau- RAWS] Gleipnir.S01.2020.RUS.JAP.WEBRip.Deadmauvlad.Ep.03.ass33 KB
RUS subs/[Deadmau- RAWS] Gleipnir.S01.2020.RUS.JAP.WEBRip.Deadmauvlad.Ep.04.ass32.1 KB
RUS subs/[Deadmau- RAWS] Gleipnir.S01.2020.RUS.JAP.WEBRip.Deadmauvlad.Ep.05.ass34.7 KB
RUS subs/[Deadmau- RAWS] Gleipnir.S01.2020.RUS.JAP.WEBRip.Deadmauvlad.Ep.06.ass35.5 KB
RUS subs/[Deadmau- RAWS] Gleipnir.S01.2020.RUS.JAP.WEBRip.Deadmauvlad.Ep.07.ass29.4 KB
RUS subs/[Deadmau- RAWS] Gleipnir.S01.2020.RUS.JAP.WEBRip.Deadmauvlad.Ep.08.ass36.4 KB
RUS subs/[Deadmau- RAWS] Gleipnir.S01.2020.RUS.JAP.WEBRip.Deadmauvlad.Ep.09.ass31.9 KB
RUS subs/[Deadmau- RAWS] Gleipnir.S01.2020.RUS.JAP.WEBRip.Deadmauvlad.Ep.10.ass33.3 KB
RUS subs/[Deadmau- RAWS] Gleipnir.S01.2020.RUS.JAP.WEBRip.Deadmauvlad.Ep.11.ass40.9 KB
RUS subs/[Deadmau- RAWS] Gleipnir.S01.2020.RUS.JAP.WEBRip.Deadmauvlad.Ep.12.ass30.8 KB
RUS subs/[Deadmau- RAWS] Gleipnir.S01.2020.RUS.JAP.WEBRip.Deadmauvlad.Ep.13.ass30.7 KB
[Deadmau- RAWS] Gleipnir.S01.2020.RUS.JAP.WEBRip.Deadmauvlad.Ep.01.avi333.8 MB
[Deadmau- RAWS] Gleipnir.S01.2020.RUS.JAP.WEBRip.Deadmauvlad.Ep.02.avi333.8 MB
[Deadmau- RAWS] Gleipnir.S01.2020.RUS.JAP.WEBRip.Deadmauvlad.Ep.03.avi333.8 MB
[Deadmau- RAWS] Gleipnir.S01.2020.RUS.JAP.WEBRip.Deadmauvlad.Ep.04.avi333.8 MB
[Deadmau- RAWS] Gleipnir.S01.2020.RUS.JAP.WEBRip.Deadmauvlad.Ep.05.avi333.8 MB
[Deadmau- RAWS] Gleipnir.S01.2020.RUS.JAP.WEBRip.Deadmauvlad.Ep.06.avi333.8 MB
[Deadmau- RAWS] Gleipnir.S01.2020.RUS.JAP.WEBRip.Deadmauvlad.Ep.07.avi333.8 MB
[Deadmau- RAWS] Gleipnir.S01.2020.RUS.JAP.WEBRip.Deadmauvlad.Ep.08.avi333.8 MB
[Deadmau- RAWS] Gleipnir.S01.2020.RUS.JAP.WEBRip.Deadmauvlad.Ep.09.avi333.8 MB
[Deadmau- RAWS] Gleipnir.S01.2020.RUS.JAP.WEBRip.Deadmauvlad.Ep.10.avi333.8 MB
[Deadmau- RAWS] Gleipnir.S01.2020.RUS.JAP.WEBRip.Deadmauvlad.Ep.11.avi317.6 MB
[Deadmau- RAWS] Gleipnir.S01.2020.RUS.JAP.WEBRip.Deadmauvlad.Ep.12.avi333.8 MB
[Deadmau- RAWS] Gleipnir.S01.2020.RUS.JAP.WEBRip.Deadmauvlad.Ep.13.END.avi333.8 MB

Alternative Torrents for 'Deadmau RAWS Глейпнир RUS JAP DLRip Deadmauvlad'.

TORRENT NAMEADDEDSIZESEEDSPEERSHEALTH
7/9/20204.2 GB00