The Old Guard 2020 WEB-DL 1080p HDR SeleZen

Torrent Details

The Old Guard 2020 WEB-DL 1080p HDR<span style=color:#fc9c6d> seleZen</span>
The Old Guard 2020 WEB-DL 1080p HDR<span style=color:#fc9c6d> seleZen</span>

NAME
The Old Guard 2020 WEB-DL 1080p HDR seleZen.torrent
CATEGORY
Movies
INFOHASH
c4b70f77fedcac0037817c3165273beb23f4a489
SIZE
6.7 GB in 1 file
ADDED
Uploaded on 10-07-2020 by our crawler pet called "Spidey".
SWARM
0 seeders & 0 peers
RATING
No votes yet.

Please login to vote for this torrent.


Description

Информация о фильме

Название: Бессмертная гвардия

Оригинальное название: The Old Guard

Год выхода: 2020

Жанр: Фэнтези, боевик

Режиссер: Джина Принс-Байтвуд

В ролях: Шарлиз Терон, КиКи Лэйн, Маттиас Шонартс, Марван Кензари, Лука Маринелли, Чиветел Эджиофор, Гарри Меллинг, Вероника Нго, Наташа Карам, Метте Таули







О фильме: Экранизация комикса о группе бессмертных воинов из разных эпох, возглавляемых Андромахой из Скифии (Шарлиз Терон) и веками защищающих смертный мир. За долгие годы их интерес к жизни угас, но однажды во время очередной миссии способности бессмертных оказываются под угрозой. Благодаря новой воительнице по имени Нил у группы появляется шанс разобраться с теми, кто пытается воспользоваться их силой.



Страна: США

Студия: Denver and Delilah Productions, Skydance Media, Dune Films

Продолжительность: 02:05:36

Перевод: Дублированный | Netflix



Качество: WEB-DL 1080p

Видео: 1920x1080 at 24.000 fps, MPEG-H HEVC HDR Video, 5681 kbps avg

Аудио #01: 48 kHz, E-AC3, 5.1, 640 Kbps | Дублированный | RUS |

Аудио #02: 48 kHz, AC3, 5.1, 640 Kbps | Дублированный | RUS |

Аудио #02: 48 kHz, E-AC3+Atmos, 5.1, 768 Kbps | Оригинал | ENG |

Субтитры: Русские (Forced, full), английские







MIGeneral

Unique ID : 176787422632288636764408880653376654147 (0x850004E3FD8780B7C7E5271BB7FB8B43)

Complete name : E:Video111The.Old.Guard.2020.WEB-DL.1080p.HDR.seleZen.mkv

Format : Matroska

Format version : Version 4

File size : 6.74 GiB

Duration : 2 h 5 min

Overall bit rate : 7 680 kb/s

Movie name : The Old Guard 2020 from селезень

Encoded date : UTC 2020-07-10 08:01:06

Writing application : mkvmerge v40.0.0 ('Old Town Road + Pony') 64-bit

Writing library : libebml v1.3.9 + libmatroska v1.5.2



Video

ID : 1

Format : HEVC

Format/Info : High Efficiency Video Coding

Format profile : Main [email protected]@Main

HDR format : SMPTE ST 2086, HDR10 compatible

Codec ID : V_MPEGH/ISO/HEVC

Duration : 2 h 4 min

Bit rate : 5 681 kb/s

Width : 1 920 pixels

Height : 1 080 pixels

Display aspect ratio : 16:9

Frame rate mode : Constant

Frame rate : 24.000 FPS

Color space : YUV

Chroma subsampling : 4:2:0 (Type 2)

Bit depth : 10 bits

Bits/(Pixel*Frame) : 0.114

Stream size : 4.94 GiB (73%)

Language : English

Default : Yes

Forced : No

Color range : Limited

Color primaries : BT.2020

Transfer characteristics : PQ

Matrix coefficients : BT.2020 non-constant

Mastering display color primaries : Display P3

Mastering display luminance : min: 0.0001 cd/m2, max: 1000 cd/m2

Maximum Content Light Level : 738 cd/m2

Maximum Frame-Average Light Level : 287 cd/m2



Audio #1

ID : 2

Format : E-AC-3

Format/Info : Enhanced AC-3

Commercial name : Dolby Digital Plus

Codec ID : A_EAC3

Duration : 2 h 5 min

Bit rate mode : Constant

Bit rate : 640 kb/s

Channel(s) : 6 channels

Channel layout : L R C LFE Ls Rs

Sampling rate : 48.0 kHz

Frame rate : 31.250 FPS (1536 SPF)

Compression mode : Lossy

Stream size : 575 MiB (8%)

Title : Dub

Language : Russian

Service kind : Complete Main

Default : Yes

Forced : Yes



Audio #2

ID : 3

Format : AC-3

Format/Info : Audio Coding 3

Commercial name : Dolby Digital

Codec ID : A_AC3

Duration : 2 h 5 min

Bit rate mode : Constant

Bit rate : 640 kb/s

Channel(s) : 6 channels

Channel layout : L R C LFE Ls Rs

Sampling rate : 48.0 kHz

Frame rate : 31.250 FPS (1536 SPF)

Compression mode : Lossy

Stream size : 575 MiB (8%)

Title : Dub

Language : Russian

Service kind : Complete Main

Default : No

Forced : No



Audio #3

ID : 4

Format : E-AC-3 JOC

Format/Info : Enhanced AC-3 with Joint Object Coding

Commercial name : Dolby Digital Plus with Dolby Atmos

Codec ID : A_EAC3

Duration : 2 h 5 min

Bit rate mode : Constant

Bit rate : 768 kb/s

Channel(s) : 6 channels

Channel layout : L R C LFE Ls Rs

Sampling rate : 48.0 kHz

Frame rate : 31.250 FPS (1536 SPF)

Compression mode : Lossy

Stream size : 690 MiB (10%)

Title : Original

Language : English

Service kind : Complete Main

Default : No

Forced : No

Complexity index : 16

Number of dynamic objects : 15

Bed channel count : 1 channel

Bed channel configuration : LFE



Text #1

ID : 5

Format : UTF-8

Codec ID : S_TEXT/UTF8

Codec ID/Info : UTF-8 Plain Text

Duration : 2 h 2 min

Bit rate : 1 b/s

Count of elements : 43

Stream size : 1.65 KiB (0%)

Title : Forced

Language : Russian

Default : Yes

Forced : Yes



Text #2

ID : 6

Format : UTF-8

Codec ID : S_TEXT/UTF8

Codec ID/Info : UTF-8 Plain Text

Duration : 2 h 3 min

Bit rate : 53 b/s

Count of elements : 1122

Stream size : 48.8 KiB (0%)

Title : Full

Language : Russian

Default : No

Forced : No



Text #3

ID : 7

Format : UTF-8

Codec ID : S_TEXT/UTF8

Codec ID/Info : UTF-8 Plain Text

Duration : 1 h 12 min

Bit rate : 0 b/s

Count of elements : 16

Stream size : 264 Bytes (0%)

Title : Forced

Language : English

Default : No

Forced : No



Text #4

ID : 8

Format : UTF-8

Codec ID : S_TEXT/UTF8

Codec ID/Info : UTF-8 Plain Text

Duration : 1 h 56 min

Bit rate : 47 b/s

Count of elements : 1492

Stream size : 40.6 KiB (0%)

Title : SDH

Language : English

Default : No

Forced : No



Релиз от:



Discussion

Comments 0

Post Your Comment

Files in this torrent

FILENAMESIZE
The.Old.Guard.2020.WEB-DL.1080p.HDR.seleZen.mkv6.7 GB

Alternative Torrents for 'Old Guard HDR'.

TORRENT NAMEADDEDSIZESEEDSPEERSHEALTH
7/13/20205.6 GB00
7/12/20206.7 GB00
7/10/20206.7 GB00