2019 - Dopo La Caduta Di New York - 2019 After The Fall Of New York (1983) 1080p H264 Ita Eng-MIRcrew-mux By Robbyrs

Torrent Details


2019 - Dopo la caduta di New York -<span style=color:#777> 2019</span> After the Fall of New York <span style=color:#777>(1983)</span> 1080p H264 ita eng-MIRcrew-mux by robbyrs

NAME
2019 - Dopo la caduta di New York - 2019 After the Fall of New York (1983) 1080p H264 ita eng-MIRcrew-mux by robbyrs.torrent
CATEGORY
Movies
INFOHASH
11d67f9e643b35f94de68ff70f70bf6850b38a27
SIZE
2 GB in 1 file
ADDED
Uploaded on 11-07-2020 by our crawler pet called "Spidey".
SWARM
0 seeders & 0 peers
RATING
No votes yet.

Please login to vote for this torrent.


Description

2019: After the Fall of New York - 2019 - Dopo la caduta di New York (1983).1080p.H264.ita.eng.Ac3-MIRCrew mux by robbyrs


NO FOUND ONLY ORIGINAL RELEASE

My release is always in double track audio italian and Original audio
for select it use VLC or dvd player home
not use wmp

2019 - Dopo la caduta di New York - 2019: After the Fall of New York (1983)

Quality MIRCrew on HD 1080p da 2,0 gb mux by robbyrs









Titolo originale2019 - After the Fall of New York
Lingua originaleinglese
Paese di produzioneItalia, Francia
Anno1983
Durata91 min
Rapporto1,85:1
Genereazione, fantascienza, guerra
RegiaSergio Martino (come Martin Dolman)
SoggettoErnesto Gastaldi (come Julian Berry), Sergio Martino (come Martin Dolman)
SceneggiaturaErnesto Gastaldi (come Julian Berry), Sergio Martino (come Martin Dolman)



Interpreti: Oris Erhuero, Carlos Gallardo, Mark Strange, Katarina Leigh Waters



In un futuro e distopico 2019, il mondo è stato devastato dalla guerra atomica ed i pochi superstiti non possono prolificare e ripopolare la razza perché contaminati dalla radioattività. La Nuova Confederazione ha però identificato a New York una ragazza ancora in grado di portare a termine una gravidanza. Per recuperarla, viene mandato Parsifal, nemico giurato degli Eurac, capitanati dalla spietata Ania e dal suo comandante. La ricompensa è un posto sull'astronave che partirà per Alpha Centauri.



After a nuclear war, society breaks down into two groups, the evil Euraks and the rebel Federation. A mercenary named Parsifal is hired by the Federation to infiltrate New York City, which is controlled by the Euraks, to rescue the only fertile woman left on Earth.









General

Complete name : 2019 - Dopo la caduta di New York - 2019 After the Fall of New York (1983)2019 - Dopo la caduta di New York - 2019 After the Fall of New York (1983).1080p.H264.ita.eng-MIRcrew-mux by robbyrs.mkv
Format : Matroska
Format version : Version 2
File size : 1.99 GiB
Duration : 1h 35mn
Overall bit rate : 2 975 Kbps
Movie name : MIRCrew
Encoded date : UTC 2020-06-28 17:20:38
Writing application : mkvmerge v5.4.0 ('Piper') built on Mar 10 2012 13:34:39
Writing library : Lavf54.63.100
ARTIST : robbyrs
COMMENT : MIRcrew
COPYRIGHT : MIRCrew

Video
ID : 1
Format : AVC
Format/Info : Advanced Video Codec
Format profile : [email protected]
Format settings, CABAC : Yes
Format settings, ReFrames : 2 frames
Codec ID : V_MPEG4/ISO/AVC
Duration : 1h 35mn
Bit rate : 2 600 Kbps
Width : 1 920 pixels
Height : 1 040 pixels
Display aspect ratio : 16:9
Frame rate mode : Variable
Frame rate : 23.976 fps
Color space : YUV
Chroma subsampling : 4:2:0
Bit depth : 8 bits
Scan type : Progressive
Bits/(Pixel*Frame) : 0.054
Stream size : 1.69 GiB (85%)
Title : MIRCrew
Writing library : x264 core 130 r2273
Encoding settings : cabac=1 / ref=2 / deblock=1:-1:-1 / analyse=0x1:0x131 / me=hex / subme=7 / psy=1 / psy_rd=1.00:0.10 / mixed_ref=0 / me_range=16 / chroma_me=1 / trellis=1 / 8x8dct=0 / cqm=0 / deadzone=21,11 / fast_pskip=1 / chroma_qp_offset=-3 / threads=9 / lookahead_threads=1 / sliced_threads=0 / nr=0 / decimate=1 / interlaced=0 / bluray_compat=0 / constrained_intra=0 / bframes=3 / b_pyramid=0 / b_adapt=1 / b_bias=0 / direct=3 / weightb=1 / open_gop=0 / weightp=2 / keyint=230 / keyint_min=23 / scenecut=40 / intra_refresh=0 / rc_lookahead=40 / rc=abr / mbtree=1 / bitrate=2600 / ratetol=1.0 / qcomp=0.60 / qpmin=10 / qpmax=69 / qpstep=4 / vbv_maxrate=24000 / vbv_bufsize=24000 / nal_hrd=none / ip_ratio=1.40 / aq=1:1.00
Language : Italian
Default : Yes
Forced : No

Audio #1
ID : 2
Format : AC-3
Format/Info : Audio Coding 3
Mode extension : CM (complete main)
Codec ID : A_AC3
Duration : 1h 35mn
Bit rate mode : Constant
Bit rate : 192 Kbps
Channel(s) : 2 channels
Channel positions : Front: L R
Sampling rate : 48.0 KHz
Bit depth : 16 bits
Compression mode : Lossy
Delay relative to video : 1s 208ms
Stream size : 132 MiB (6%)
Title : Ita Ac3
Language : English
Default : No
Forced : No

Audio #2
ID : 3
Format : AC-3
Format/Info : Audio Coding 3
Mode extension : CM (complete main)
Codec ID : A_AC3
Duration : 1h 35mn
Bit rate mode : Constant
Bit rate : 192 Kbps
Channel(s) : 2 channels
Channel positions : Front: L R
Sampling rate : 48.0 KHz
Bit depth : 16 bits
Compression mode : Lossy
Delay relative to video : -5ms
Stream size : 132 MiB (6%)
Title : Eng Ac3
Language : English
Default : No
Forced : No

Menu
00:00:00.000 : :00:00:00.000
00:07:01.379 : :00:07:01.379
00:16:10.970 : :00:16:10.970
00:24:51.990 : :00:24:51.990
00:37:15.984 : :00:37:15.984
00:47:03.320 : :00:47:03.320
00:58:17.327 : :00:58:17.327
01:11:28.284 : :01:11:28.284
01:20:49.845 : :01:20:49.845
01:30:25.170 : :01:30:25.170

Discussion

Comments 0

Post Your Comment

Files in this torrent

FILENAMESIZE
2019 - Dopo la caduta di New York - 2019 After the Fall of New York (1983).1080p.H264.ita.eng-MIRcrew-mux by robbyrs.mkv2 GB

Alternative Torrents for 'Dopo la caduta di York After Fall of York MIRcrewmux by robbyrs'.

There are no alternative torrents found.