Fantasy Island (2020) 720p BluRay X264 Exclusive By~Hammer~

Torrent Details


Fantasy Island (2020) 720p BluRay x264   Exclusive By~Hammer~

NAME
Fantasy Island (2020) 720p BluRay x264 Exclusive By~Hammer~.torrent
CATEGORY
Movies
INFOHASH
ee15a94b60a9c73e001b82b663f77958087eff93
SIZE
1.7 GB in 1 file
ADDED
Uploaded on 11-07-2020 by our crawler pet called "Spidey".
SWARM
0 seeders & 0 peers
RATING
No votes yet.

Please login to vote for this torrent.


Description

Fantasy Island (2020) 720p BluRay x264 {Dual Audio} {Hindi-Eng DD 5.1} Exclusive By~Hammer~





Stay Home Stay Safe From Coronavirus

General
Format : Matroska
Format version : Version 4 / Version 2
File size : 1.69 GiB
Duration : 1 h 49 min
Overall bit rate : 2 213 kb/s
Movie name : Fantasy Island (2020) 720p BluRay x264 {Dual Audio} {Hindi-Eng DD 5.1} MSub By~Hammer~
Bit rate : 1 299 kb/s
Width : 1 280 pixels
Height : 536 pixels
Display aspect ratio : 2.40:1
Frame rate mode : Constant
Frame rate : 23.976 (24000/1001) FPS
Title : ~EncodeR~Hammer~
Language : English
Default : Yes
Forced : No

Audio #1
Format : AC-3
Format/Info : Audio Coding 3
Codec ID : A_AC3
Duration : 1 h 49 min
Bit rate mode : Constant
Bit rate : 640 kb/s
Channel(s) : 6 channels
Channel positions : Front: L C R, Side: L R, LFE
Sampling rate : 48.0 kHz
Frame rate : 31.250 FPS (1536 SPF)
Bit depth : 16 bits
Compression mode : Lossy
Stream size : 499 MiB (29%)
Title : Hindi Org DD 5.1 640 kbps By~Hammer~
Language : Hindi
Default : Yes
Forced : Yes

Audio #2
Format : AAC
Format/Info : Advanced Audio Codec
Format profile : LC
Codec ID : A_AAC-2
Duration : 1 h 49 min
Bit rate : 192 kb/s
Channel(s) : 6 channels
Channel positions : Front: L C R, Side: L R, LFE
Sampling rate : 48.0 kHz
Frame rate : 46.875 FPS (1024 SPF)
Compression mode : Lossy
Stream size : 150 MiB (9%)
Title : English AAC 5.1 192 kbps By~Hammer~
Language : English
Default : No
Forced : No

Text #1
Format : UTF-8
Codec ID : S_TEXT/UTF8
Codec ID/Info : UTF-8 Plain Text
Duration : 1 h 48 min
Bit rate : 151 b/s
Count of elements : 1404
Stream size : 120 KiB (0%)
Title : Hindi SRT
Language : Hindi
Default : Yes
Forced : No

Text #2
Format : PGS
Muxing mode : zlib
Codec ID : S_HDMV/PGS
Codec ID/Info : Picture based subtitle format used on BDs/HD-DVDs
Duration : 1 h 46 min
Bit rate : 42.5 kb/s
Count of elements : 3456
Stream size : 32.4 MiB (2%)
Title : English PGS
Language : English
Default : No
Forced : No

Text #3
Format : PGS
Muxing mode : zlib
Codec ID : S_HDMV/PGS
Codec ID/Info : Picture based subtitle format used on BDs/HD-DVDs
Duration : 1 h 48 min
Bit rate : 78.0 kb/s
Count of elements : 4610
Stream size : 60.8 MiB (4%)
Title : English PGS
Language : English
Default : No
Forced : No












Discussion

Comments 0

Post Your Comment

Files in this torrent

FILENAMESIZE
Fantasy Island (2020) 720p BluRay x264 {Dual Audio} {Hindi-Eng DD 5.1} MSub By~Hammer~.mkv1.7 GB

Alternative Torrents for 'Fantasy Island BluRay Exclusive ByHammer'.

TORRENT NAMEADDEDSIZESEEDSPEERSHEALTH
8/2/2020920 MB89893
7/31/20201.9 GB822304
7/30/20201.8 GB68992
8/7/20201.1 GB687732
8/7/20202.3 GB623544
8/2/20203.8 GB529328
Yesterday926 MB524293
8/7/2020875 MB475389
7/9/20174.6 GB446166
Today806 MB389231
8/6/2020967 MB364212
8/1/20201 GB35257
Today1.6 GB331188
Yesterday1.8 GB331359
Yesterday1.7 GB327132