Men Of Honor (2000) BDRip 1080p-HEVC 10 Bit

Torrent Details

Men of Honor (2000) BDRip 1080p-HEVC 10 bit
Men of Honor (2000) BDRip 1080p-HEVC 10 bit

NAME
Men of Honor (2000) BDRip 1080p-HEVC 10 bit.torrent
CATEGORY
Movies
INFOHASH
d41b9d84c2640911198357c9148720bf7976e852
SIZE
7.8 GB in 1 file
ADDED
Uploaded on 12-07-2020 by our crawler pet called "Spidey".
SWARM
0 seeders & 0 peers
RATING
No votes yet.

Please login to vote for this torrent.


Description

Год выхода: 2000

Страна: США

Студия: Fox 2000 Pictures, State Street Pictures

Жанр: Драма, биография, история

Продолжительность: 02:08:47

Перевод: Дублированный



Режиссер: Джордж Тиллман мл.

В ролях: Роберт Де Ниро, Кьюба Гудинг мл., Шарлиз Терон, Онжаню Эллис, Хэл Холбрук, Майкл Рапапорт, Пауэрс Бут, Дэвид Кит, Холт МакКэллани, Дэвид Конрад, Джошуа Леонард, Карл Ламбли, Лонетт МакКи, Глинн Тёрмен, Джошуа Фейнман, Райан Хони, Джек Фрэзиер, Алими Баллард, Шоун Майкл Ховард, Мишель Гатри, Скотт Крафт, Дуле Хилл, Джон Полс, Роберт Бланш, Вейн Морс, Леон Рассом, Айанна Беркшир, Тайлер Пози



Описание: Фильм основан на реальных событиях из жизни легендарного водолаза Карла Брашира. Его наставник и старший офицер Билл Сандэй убежден, что неграм нечего делать во флоте, и самыми жестокими и бесчеловечными способами издевается и «обламывает» амбициозного новичка.

Однако ему это не удается, и более того, вскоре он начинает испытывать симпатию к этому чрезвычайно упертому парню, который скорее погибнет, чем покажет слабость. Вместе они пытаются сопротивляться бюрократам из командования ВМФ, которых не устраивает цвет кожи героя.

Карл всегда вызывается добровольцем на выполнение самых опасных секретных спецопераций, связанных с повышенным риском для жизни. Однако судьба приготовила ему куда более страшное испытание, преодолеть которое способен только настоящий герой.







Качество: BDRip-HEVC 1080p

Видео: HEVC/x.265, 1920x824, ~7782 Kbps

Аудио 1: AC3, 6 ch, 448 Kbps - Русский, дублированный (Лицензия)

Аудио 2: AC3, 6 ch, 448 Kbps - Английский

Субтитры: Русские, английские







Mediainfo



x265 [info]: frame I: 1778, Avg QP:18.01 kb/s: 16379.78

x265 [info]: frame P: 30191, Avg QP:19.20 kb/s: 12647.27

x265 [info]: frame B: 153317, Avg QP:21.20 kb/s: 6723.38

////////////////////////////////////////////////////////////

General

Unique ID : 339591698284126215657043098299705968270 (0xFF7AFB68392A7AF2541B916A8A69C68E)

Complete name : G:HEVC-CLUBMen of Honor (2000) BDRip 1080p-HEVC 10 bit.mkv

Format : Matroska

Format version : Version 4

File size : 7.81 GiB

Duration : 2 h 8 min

Overall bit rate : 8 680 kb/s

Encoded date : UTC 2020-07-09 21:09:19

Writing application : mkvmerge v47.0.0 ('Black Flag') 64-bit

Writing library : libebml v1.3.10 + libmatroska v1.5.2

Cover : Yes

Attachments : cover.jpg



Video

ID : 1

Format : HEVC

Format/Info : High Efficiency Video Coding

Format profile : Main [email protected]@High

Codec ID : V_MPEGH/ISO/HEVC

Duration : 2 h 8 min

Bit rate : 7 782 kb/s

Width : 1 920 pixels

Height : 824 pixels

Display aspect ratio : 2.35:1

Frame rate mode : Constant

Frame rate : 23.976 (23976/1000) FPS

Original frame rate : 23.976 (24000/1001) FPS

Color space : YUV

Chroma subsampling : 4:2:0

Bit depth : 10 bits

Bits/(Pixel*Frame) : 0.205

Stream size : 7.00 GiB (90%)

Writing library : x265 3.3+4-g85d84b2af:[Windows][GCC 10.1.0][64 bit] 10bit

Encoding settings : cpuid=1111039 / frame-threads=3 / numa-pools=12 / wpp / no-pmode / no-pme / no-psnr / no-ssim / log-level=2 / input-csp=1 / input-res=1920x824 / interlace=0 / total-frames=185286 / level-idc=41 / high-tier=1 / uhd-bd=0 / ref=5 / no-allow-non-conformance / no-repeat-headers / annexb / no-aud / no-hrd / info / hash=0 / no-temporal-layers / open-gop / min-keyint=23 / keyint=240 / gop-lookahead=0 / bframes=11 / b-adapt=2 / b-pyramid / bframe-bias=0 / rc-lookahead=60 / lookahead-slices=4 / scenecut=40 / hist-scenecut=0 / radl=0 / no-splice / no-intra-refresh / ctu=32 / min-cu-size=8 / rect / amp / max-tu-size=32 / tu-inter-depth=4 / tu-intra-depth=4 / limit-tu=0 / rdoq-level=2 / dynamic-rd=0.00 / no-ssim-rd / signhide / no-tskip / nr-intra=0 / nr-inter=0 / no-constrained-intra / no-strong-intra-smoothing / max-merge=5 / limit-refs=0 / no-limit-modes / me=3 / subme=7 / merange=57 / temporal-mvp / no-frame-dup / no-hme / weightp / weightb / no-analyze-src-pics / deblock=-3:-3 / no-sao / no-sao-non-deblock / rd=6 / selective-sao=0 / no-early-skip / no-rskip / no-fast-intra / no-tskip-fast / no-cu-lossless / b-intra / no-splitrd-skip / rdpenalty=0 / psy-rd=2.00 / psy-rdoq=1.00 / no-rd-refine / no-lossless / cbqpoffs=0 / crqpoffs=0 / rc=crf / crf=20.5 / qcomp=0.70 / qpstep=4 / stats-write=0 / stats-read=0 / vbv-maxrate=50000 / vbv-bufsize=50000 / vbv-init=0.9 / crf-max=0.0 / crf-min=0.0 / ipratio=1.40 / pbratio=1.30 / aq-mode=2 / aq-strength=1.00 / no-cutree / zone-count=0 / no-strict-cbr / qg-size=32 / no-rc-grain / qpmax=69 / qpmin=0 / no-const-vbv / sar=1 / overscan=0 / videoformat=5 / range=0 / colorprim=1 / transfer=1 / colormatrix=1 / chromaloc=0 / display-window=0 / cll=0,0 / min-luma=0 / max-luma=1023 / log2-max-poc-lsb=8 / vui-timing-info / vui-hrd-info / slices=1 / no-opt-qp-pps / no-opt-ref-list-length-pps / no-multi-pass-opt-rps / scenecut-bias=0.05 / hist-threshold=0.01 / no-opt-cu-delta-qp / no-aq-motion / no-hdr10 / no-hdr10-opt / no-dhdr10-opt / no-idr-recovery-sei / analysis-reuse-level=0 / analysis-save-reuse-level=0 / analysis-load-reuse-level=0 / scale-factor=0 / refine-intra=0 / refine-inter=0 / refine-mv=1 / refine-ctu-distortion=0 / no-limit-sao / ctu-info=0 / no-lowpass-dct / refine-analysis-type=0 / copy-pic=1 / max-ausize-factor=1.0 / no-dynamic-refine / no-single-sei / no-hevc-aq / no-svt / no-field / qp-adaptation-range=1.00 / no-scenecut-aware-qpconformance-window-offsets / right=0 / bottom=0

Default : Yes

Forced : No

Color range : Limited

Color primaries : BT.709

Transfer characteristics : BT.709

Matrix coefficients : BT.709



Audio #1

ID : 2

Format : AC-3

Format/Info : Audio Coding 3

Commercial name : Dolby Digital

Codec ID : A_AC3

Duration : 2 h 8 min

Bit rate mode : Constant

Bit rate : 448 kb/s

Channel(s) : 6 channels

Channel layout : L R C LFE Ls Rs

Sampling rate : 48.0 kHz

Frame rate : 31.250 FPS (1536 SPF)

Compression mode : Lossy

Stream size : 412 MiB (5%)

Language : Russian

Service kind : Complete Main

Default : Yes

Forced : No



Audio #2

ID : 3

Format : AC-3

Format/Info : Audio Coding 3

Commercial name : Dolby Digital

Codec ID : A_AC3

Duration : 2 h 8 min

Bit rate mode : Constant

Bit rate : 448 kb/s

Channel(s) : 6 channels

Channel layout : L R C LFE Ls Rs

Sampling rate : 48.0 kHz

Frame rate : 31.250 FPS (1536 SPF)

Compression mode : Lossy

Stream size : 413 MiB (5%)

Language : English

Service kind : Complete Main

Default : No

Forced : No



Text #1

ID : 4

Format : UTF-8

Codec ID : S_TEXT/UTF8

Codec ID/Info : UTF-8 Plain Text

Duration : 2 h 0 min

Bit rate : 109 b/s

Count of elements : 1267

Stream size : 97.1 KiB (0%)

Language : Russian

Default : No

Forced : No



Text #2

ID : 5

Format : UTF-8

Codec ID : S_TEXT/UTF8

Codec ID/Info : UTF-8 Plain Text

Duration : 1 h 59 min

Bit rate : 45 b/s

Count of elements : 1137

Stream size : 39.9 KiB (0%)

Language : English

Default : No

Forced : No





00:00:00.000 : en:Opening Credits/"Don't End Up Like Me"

00:07:31.534 : en:Big Future in the U.S. Navy

00:14:51.599 : en:Master Chief Sunday

00:21:40.299 : en:Beware What You Wish For

00:27:09.670 : en:Welcoming Boatswain's Mate Brashear

00:36:03.286 : en:Passing the Test

00:42:32.550 : en:Salvage and Rescue

00:49:09.572 : en:Bad News

00:54:16.462 : en:The Bet

01:04:24.944 : en:Be The Best

01:10:44.365 : en:Against All Odds

01:19:32.017 : en:Happy New Year

01:25:00.721 : en:Missile Rescue

01:31:57.679 : en:Never Gonna Dive Again

01:41:48.311 : en:To Be A Master Diver

01:48:11.235 : en:Trial of Honor

01:55:17.744 : en:Twelve Steps

02:02:24.337 : en:End Credits



Скриншоты





Релиз от: HANNIBAL

Discussion

Comments 0

Post Your Comment

Files in this torrent

FILENAMESIZE
Men of Honor (2000) BDRip 1080p-HEVC 10 bit.mkv7.8 GB

Alternative Torrents for 'Men of Honor HEVC bit'.

TORRENT NAMEADDEDSIZESEEDSPEERSHEALTH
7/12/20207.8 GB00