Fantasy Island (2020) UNRATED 1080p BluRay X264 Esubs [Dual Audio] [Hindi ORG DD 5.1 - English]

Torrent Details

Fantasy Island (2020) UNRATED 1080p BluRay x264 Esubs [Dual Audio] [Hindi ORG DD 5.1 - English]
Fantasy Island (2020) UNRATED 1080p BluRay x264 Esubs [Dual Audio] [Hindi ORG DD 5.1 - English]

NAME
Fantasy Island (2020) UNRATED 1080p BluRay x264 Esubs [Dual Audio] [Hindi ORG DD 5.1 - English].torrent
CATEGORY
Movies
INFOHASH
d80215bbcc920bc4ed1bf9d0ed69c534177a7836
SIZE
2.3 GB in 2 files
ADDED
Uploaded on 12-07-2020 by our crawler pet called "Spidey".
SWARM
0 seeders & 0 peers
RATING
No votes yet.

Please login to vote for this torrent.


Description

Fantasy Island (2020) UNRATED 1080p BluRay x264 Esubs [Dual Audio] [Hindi ORG DD 5.1 - English] - 2.3 GB
This Movie Encoded by DesireMoVies.BAR
POSTER

INFO
General
Format : Matroska
Format version : Version 4
File size : 2.29 GiB
Duration : 1 h 49 min
Overall bit rate : 3 002 kb/s

Video
ID : 1
Format : AVC
Format/Info : Advanced Video Codec
Format profile : [email protected]
Format settings : CABAC / 5 Ref Frames
Format settings, CABAC : Yes
Format settings, Reference : 5 frames
Codec ID : V_MPEG4/ISO/AVC
Duration : 1 h 49 min
Bit rate : 2 668 kb/s
Width : 1 920 pixels
Height : 804 pixels
Display aspect ratio : 2.40:1
Frame rate mode : Constant
Frame rate : 23.976 (24000/1001) FPS
Color space : YUV
Chroma subsampling : 4:2:0
Bit depth : 8 bits
Default : Yes
Forced : No

Audio #1
ID : 3
Format : AAC LC SBR
Format/Info : Advanced Audio Codec Low Complexity with Spectral Band Replication
Commercial name : HE-AAC
Format settings : NBC
Codec ID : A_AAC-5
Duration : 1 h 49 min
Bit rate : 224 kb/s
Channel(s) : 6 channels
Channel layout : C L R Ls Rs LFE
Sampling rate : 48.0 kHz
Frame rate : 23.438 FPS (2048 SPF)
Compression mode : Lossy
Stream size : 175 MiB (7%)
Title : DesireMoVies.BAR
Language : Hindi
Default : Yes
Forced : No

Audio #2
ID : 4
Format : AAC LC
Format/Info : Advanced Audio Codec Low Complexity
Codec ID : A_AAC-2
Duration : 1 h 49 min
Bit rate : 88.4 kb/s
Channel(s) : 2 channels
Channel layout : L R
Sampling rate : 48.0 kHz
Frame rate : 46.875 FPS (1024 SPF)
Compression mode : Lossy
Delay relative to video : 9 ms
Stream size : 69.1 MiB (3%)
Title : DesireMoVies.BAR
Language : English
Default : No
Forced : No

Text #1
ID : 2
Format : PGS
Muxing mode : zlib
Codec ID : S_HDMV/PGS
Codec ID/Info : Picture based subtitle format used on BDs/HD-DVDs
Duration : 1 h 42 min
Bit rate : 37.7 kb/s
Count of elements : 2800
Stream size : 27.7 MiB (1%)
Title : DesireMoVies.BAR
Language : English
Default : Yes
Forced : No

Text #2
ID : 5
Format : UTF-8
Codec ID : S_TEXT/UTF8
Codec ID/Info : UTF-8 Plain Text
Duration : 1 h 42 min
Bit rate : 62 b/s
Count of elements : 1526
Stream size : 47.2 KiB (0%)
Title : DesireMoVies.BAR
Language : English
Default : No
Forced : No

Text #3
ID : 6
Format : ASS
Codec ID : S_TEXT/ASS
Codec ID/Info : Advanced Sub Station Alpha
Duration : 1 h 42 min
Bit rate : 86 b/s
Count of elements : 1431
Compression mode : Lossless
Stream size : 65.3 KiB (0%)
Title : DesireMoVies.BAR
Language : Indonesian
Default : No
Forced : No

Text #4
ID : 7
Format : UTF-8
Codec ID : S_TEXT/UTF8
Codec ID/Info : UTF-8 Plain Text
Duration : 1 h 42 min
Bit rate : 54 b/s
Count of elements : 1431
Stream size : 41.2 KiB (0%)
Title : DesireMoVies.BAR
Language : English
Default : No
Forced : No

Menu
00:00:00.000 : en:Chapter 01
00:08:46.985 : en:Chapter 02
00:13:44.699 : en:Chapter 03
00:18:47.460 : en:Chapter 04
00:25:42.583 : en:Chapter 05
00:32:38.665 : en:Chapter 06
00:39:34.789 : en:Chapter 07
00:45:24.513 : en:Chapter 08
00:51:01.934 : en:Chapter 09
00:55:38.126 : en:Chapter 10
01:01:33.940 : en:Chapter 11
01:09:39.884 : en:Chapter 12
01:15:21.809 : en:Chapter 13
01:23:02.811 : en:Chapter 14
01:29:11.805 : en:Chapter 15
01:40:03.831 : en:Chapter 16
01:44:10.786 : en:Chapter 17


SCREENSHOT

Keep Visit DesireMoVies.Monster For More Exusive MoVies

Discussion

Comments 0

Post Your Comment

Files in this torrent

FILENAMESIZE
FanTYISLND 1080p BR ORG DesireMoVies.BAR.mkv2.3 GB
SAMPLE.mkv27 MB

Alternative Torrents for 'Fantasy Island UNRATED BluRay Esubs Dual Audio Hindi ORG DD English'.

TORRENT NAMEADDEDSIZESEEDSPEERSHEALTH
7/12/20202.3 GB00