Bloodshot 2020 Bonus BR EAC3 VFF VFQ ENG 1080p X265 10Bits T0M

Torrent Details

Bloodshot 2020 Bonus BR EAC3 VFF VFQ ENG 1080p x265 10Bits T0M
Bloodshot 2020 Bonus BR EAC3 VFF VFQ ENG 1080p x265 10Bits T0M

NAME
Bloodshot 2020 Bonus BR EAC3 VFF VFQ ENG 1080p x265 10Bits T0M.torrent
CATEGORY
Movies
INFOHASH
3d954cc9a1864c5579aa39998680f026382a2343
SIZE
4.3 GB in 10 files
ADDED
Uploaded on 12-07-2020 by our crawler pet called "Spidey".
SWARM
0 seeders & 0 peers
RATING
No votes yet.

Please login to vote for this torrent.


Description

______________________________________________________________________________________________________________
Bloodshot 2020
Bluray · 1080p x265 10bits · DD+ 5.1 VFF VFQ ENG
More Bonus
¯¯¯¯¯¯¯¯¯¯¯¯¯¯¯¯¯¯¯¯¯¯¯¯¯¯¯¯¯¯¯¯¯¯¯¯¯¯¯¯¯¯¯¯¯¯¯¯¯¯¯¯¯¯¯¯¯¯¯¯¯¯¯¯¯¯¯¯¯¯¯¯¯¯¯¯¯¯¯¯



Year : 2020
Country : United States
Original, French and English Title : Bloodshot
Director : David S. F. Wilson
Music from : Steve Jablonsky
Actors : Vin Diesel, Eiza González, Sam Heughan, Toby Kebbell, Talulah Riley, Lamorne Morris, Guy Pearce
Jóhannes Haukur Jóhannesson, Alex Hernandez, Siddharth Dhananjay
Genre : Super hero, Sci-Fi, Action, Drama
Certificate : Not recommended for children under 12 years old…
Budget : 45 000 000 $ · Recipe : 25 121 787 $ · ratio : 56 %
Link : Allociné 2,7 /5 · IMDB 5,7 /10 · TMDB 70 % · SensCritique 4,4 /10 · Wiki · Bande Annonce

French Plot
Ray Garrison est un soldat tué en mission, et ramené à la vie par RST Corporations , l'entreprise qui l’a transformé en super-humain . Des nanotechnologies coulent désormais dans ses veines, ce qui le rend invincible. Il est plus fort que jamais et capable de guérir instantanément de ses blessures. Mais RST Corporation ne contrôle pas que son corps…
Adaptation du comics : Bloodshot édition Valiant Comics 1992

Bonus
Bluray Opening - 1 mn - 6,46 Mib - 1920x1080 HEVC 10Bits - MUSIQUE - 9ce9b835
Bluray Looping - 1 mn - 6,46 Mib - 1920x1080 HEVC 10Bits - MUSIQUE - 8bf71271
Gag Reel - 1 mn - 17,20 Mib - 1920x1080 HEVC 10Bits - VOSTFR - 15a27ea2
Initiate Sequence - Directing - 9 mn - 108,0 Mib - 1920x1080 HEVC 10Bits - VOSTFR - 074db7f5
Forgotten Soldiers - The Cast - 11 mn - 102,0 Mib - 1920x1080 HEVC 10Bits - VOSTFR - 6f5e4ab1
5 Deleted Scenes - 12 mn - 217,0 Mib - 1920x1080 HEVC 10Bits - VOSTFR - 202189d2
6 bonus, total 457,1 Mib 37 mn


If you enjoy and wish to support, please stay in seeding

Technical Details
¯¯¯¯¯¯¯¯¯¯¯¯¯¯¯¯¯¯¯¯¯¯¯¯¯¯¯¯¯¯¯¯¯¯¯¯¯¯¯¯¯¯¯¯¯¯¯¯¯¯¯¯¯¯¯¯¯¯¯¯¯¯¯¯¯¯¯¯¯¯¯¯¯¯¯¯¯¯¯¯¯¯¯¯¯¯¯¯¯¯¯¯¯¯¯¯¯¯¯¯
Media
Matroska 3,89 Gio 1 h49 mn 5091 Kbps, Total 4,34 Gio 2 h26 mn
Video
HEVC/H265 1920 x804 @23.976 [email protected]@Main 10 bits 3499 Kbps VerySlow qp24,26
Audio
True French 5.1 EAC3 448 Kbps 48KHz 16bits
Quebec French 5.1 EAC3 448 Kbps 48KHz 16bits
English 5.1 EAC3 448 Kbps 48KHz 16bits
True French Descriptive Audio 2.0 EAC3 192 Kbps 48KHz 16bits
Subtitles
True French / Quebec French forced SRT
True French / Quebec French full SRT
True French / Quebec French forced PGS
True French / Quebec French full PGS
English full PGS
English full SDH PGS
Chapters
International
Screenshot

Origin
Bluray : AVC 1080p 25702 Kbps, VFF 5.1 DTS-HDMA 2270 Kbps [HiBOU] + VFQ 5.1 AC3 640 Kbps, ENG 7.1 Dolby TrueHD+Atmos 3188 Kbps [CHDBits]

NFO
¯¯¯¯¯¯¯¯¯¯¯¯¯¯¯¯¯¯¯¯¯¯¯¯¯¯¯¯¯¯¯¯¯¯¯¯¯¯¯¯¯¯¯¯¯¯¯¯¯¯¯¯¯¯¯¯¯¯¯¯¯¯¯¯¯¯¯¯¯¯¯¯¯¯¯¯¯¯¯¯¯¯¯¯¯¯¯¯¯¯¯¯¯¯¯¯¯¯¯¯
General
Complete name : Bloodshot 2020 BR EAC3 VFF VFQ ENG 1080p x265 10Bits T0M.mkv
Format : Matroska
Format version : Version 4
File size : 3.89 GiB
Duration : 1 h 49 min
Overall bit rate : 5 091 kb/s
Movie name : Bloodshot 2020 de David S. F. Wilson avec Vin Diesel, Eiza González, Sam Heughan, Toby Kebbell, Talulah Riley, Lamorne Morris, Guy Pearce, Jóhannes Haukur Jóhannesson, Alex Hernandez, Siddharth Dhananjay. -12 ans (allocine=204239,imdb=tt1634106) T0M
Encoded date : UTC 2020-07-08 08:35:26
Writing application : mkvmerge v47.0.0 ('Black Flag') 64-bit
Writing library : libebml v1.3.10 + libmatroska v1.5.2
Cover : Yes
Attachments : Cover.jpg / Box.jpg

Video
ID : 1
Format : HEVC
Format/Info : High Efficiency Video Coding
Format profile : Main [email protected]@Main
Codec ID : V_MPEGH/ISO/HEVC
Duration : 1 h 49 min
Bit rate : 3 499 kb/s
Width : 1 920 pixels
Height : 804 pixels
Display aspect ratio : 2.40:1
Frame rate mode : Constant
Frame rate : 23.976 (24000/1001) FPS
Color space : YUV
Chroma subsampling : 4:2:0
Bit depth : 10 bits
Bits/(Pixel*Frame) : 0.095
Stream size : 2.67 GiB (69%)
Title : Video HEVC 1920x804 (2.40:1) @23.976 x265 [email protected]@Main 10bits 3500kbps 2pass veryslow 3566mn qp24,26
Writing library : x265 3.2.1+1-b5c86a64bbbe:[Windows][GCC 9.2.0][64 bit] 10bit
Encoding settings : cpuid=1111039 / frame-threads=3 / numa-pools=8 / wpp / no-pmode / no-pme / no-psnr / no-ssim / log-level=2 / input-csp=1 / input-res=1920x804 / interlace=0 / total-frames=0 / level-idc=0 / high-tier=1 / uhd-bd=0 / ref=5 / no-allow-non-conformance / no-repeat-headers / annexb / no-aud / no-hrd / info / hash=0 / no-temporal-layers / open-gop / min-keyint=24 / keyint=240 / gop-lookahead=0 / bframes=8 / b-adapt=2 / b-pyramid / bframe-bias=0 / rc-lookahead=120 / lookahead-slices=0 / scenecut=40 / radl=0 / no-splice / no-intra-refresh / ctu=64 / min-cu-size=8 / rect / amp / max-tu-size=32 / tu-inter-depth=3 / tu-intra-depth=3 / limit-tu=0 / rdoq-level=2 / dynamic-rd=0.00 / no-ssim-rd / signhide / no-tskip / nr-intra=0 / nr-inter=0 / no-constrained-intra / strong-intra-smoothing / max-merge=5 / limit-refs=0 / no-limit-modes / me=3 / subme=4 / merange=57 / temporal-mvp / no-hme / weightp / weightb / no-analyze-src-pics / deblock=0:0 / sao / no-sao-non-deblock / rd=6 / selective-sao=4 / no-early-skip / rskip / no-fast-intra / no-tskip-fast / no-cu-lossless / b-intra / no-splitrd-skip / rdpenalty=0 / psy-rd=2.00 / psy-rdoq=1.00 / no-rd-refine / no-lossless / cbqpoffs=0 / crqpoffs=0 / rc=abr / bitrate=3500 / qcomp=0.60 / qpstep=4 / stats-write=0 / stats-Read=2 / cplxblur=20.0 / qblur=0.5 / ipratio=1.40 / pbratio=1.30 / aq-mode=2 / aq-strength=1.00 / cutree / zone-count=0 / no-strict-cbr / qg-size=32 / no-rc-grain / qpmax=69 / qpmin=0 / no-const-vbv / sar=1 / overscan=0 / videoformat=5 / range=0 / colorprim=1 / transfer=1 / colormatrix=1 / chromaloc=0 / display-window=0 / cll=0,0 / min-luma=0 / max-luma=1023 / log2-max-poc-lsb=8 / vui-timing-info / vui-hrd-info / slices=1 / no-opt-qp-pps / no-opt-ref-list-length-pps / no-multi-pass-opt-rps / scenecut-bias=0.05 / no-opt-cu-delta-qp / no-aq-motion / no-hdr / no-hdr-opt / no-dhdr10-opt / no-idr-recovery-sei / analysis-reuse-level=5 / scale-factor=0 / refine-intra=0 / refine-inter=0 / refine-mv=1 / refine-ctu-distortion=0 / no-limit-sao / ctu-info=0 / no-lowpass-dct / refine-analysis-type=0 / copy-pic=1 / max-ausize-factor=1.0 / no-dynamic-refine / no-single-sei / no-hevc-aq / no-svt / no-field / qp-adaptation-range=1.00
Default : Yes
Forced : No
Color range : Limited
Color primaries : BT.709
Transfer characteristics : BT.709
Matrix coefficients : BT.709

Audio #1
ID : 2
Format : E-AC-3
Format/Info : Enhanced AC-3
Commercial name : Dolby Digital Plus
Codec ID : A_EAC3
Duration : 1 h 49 min
Bit rate mode : Constant
Bit rate : 448 kb/s
Channel(s) : 6 channels
Channel layout : L R C LFE Ls Rs
Sampling rate : 48.0 kHz
Frame rate : 31.250 FPS (1536 SPF)
Compression mode : Lossy
Stream size : 350 MiB (9%)
Title : Français 5.1 EAC3 448kbps 48khz 16bits
Language : French
Service kind : Complete Main
Default : Yes
Forced : No

Audio #2
ID : 3
Format : E-AC-3
Format/Info : Enhanced AC-3
Commercial name : Dolby Digital Plus
Codec ID : A_EAC3
Duration : 1 h 49 min
Bit rate mode : Constant
Bit rate : 448 kb/s
Channel(s) : 6 channels
Channel layout : L R C LFE Ls Rs
Sampling rate : 48.0 kHz
Frame rate : 31.250 FPS (1536 SPF)
Compression mode : Lossy
Delay relative to video : 6 ms
Stream size : 350 MiB (9%)
Title : Québécois 5.1 EAC3 448kbps 48khz 16bits
Language : French
Service kind : Complete Main
Default : No
Forced : No

Audio #3
ID : 4
Format : E-AC-3
Format/Info : Enhanced AC-3
Commercial name : Dolby Digital Plus
Codec ID : A_EAC3
Duration : 1 h 49 min
Bit rate mode : Constant
Bit rate : 448 kb/s
Channel(s) : 6 channels
Channel layout : L R C LFE Ls Rs
Sampling rate : 48.0 kHz
Frame rate : 31.250 FPS (1536 SPF)
Compression mode : Lossy
Stream size : 350 MiB (9%)
Title : English 5.1 EAC3 448kbps 48khz 16bits
Language : English
Service kind : Complete Main
Default : No
Forced : No

Audio #4
ID : 5
Format : E-AC-3
Format/Info : Enhanced AC-3
Commercial name : Dolby Digital Plus
Codec ID : A_EAC3
Duration : 1 h 49 min
Bit rate mode : Constant
Bit rate : 192 kb/s
Channel(s) : 2 channels
Channel layout : L R
Sampling rate : 48.0 kHz
Frame rate : 31.250 FPS (1536 SPF)
Compression mode : Lossy
Delay relative to video : 6 ms
Stream size : 150 MiB (4%)
Title : Français Audiodescription 2.0 EAC3 192kbps 48khz 16bits
Language : French
Service kind : Complete Main
Default : No
Forced : No

Text #1
ID : 6
Format : UTF-8
Codec ID : S_TEXT/UTF8
Codec ID/Info : UTF-8 Plain Text
Duration : 1 h 49 min
Bit rate : 1 b/s
Count of elements : 22
Stream size : 1.16 KiB (0%)
Title : Français / Québécois forcé (Passages)
Language : French
Default : Yes
Forced : Yes

Text #2
ID : 7
Format : UTF-8
Codec ID : S_TEXT/UTF8
Codec ID/Info : UTF-8 Plain Text
Duration : 1 h 49 min
Bit rate : 39 b/s
Count of elements : 1122
Stream size : 31.8 KiB (0%)
Title : Français / Québécois complet (Tous le film)
Language : French
Default : No
Forced : No

Text #3
ID : 8
Format : PGS
Muxing mode : zlib
Codec ID : S_HDMV/PGS
Codec ID/Info : Picture based subtitle format used on BDs/HD-DVDs
Duration : 1 h 44 min
Bit rate : 267 b/s
Count of elements : 24
Stream size : 205 KiB (0%)
Title : Français / Québécois forcé (Passages) PGS
Language : French
Default : No
Forced : Yes

Text #4
ID : 9
Format : PGS
Muxing mode : zlib
Codec ID : S_HDMV/PGS
Codec ID/Info : Picture based subtitle format used on BDs/HD-DVDs
Duration : 1 h 48 min
Bit rate : 23.1 kb/s
Count of elements : 2234
Stream size : 17.8 MiB (0%)
Title : Français / Québécois complet (Tous le film) PGS
Language : French
Default : No
Forced : No

Text #5
ID : 10
Format : PGS
Muxing mode : zlib
Codec ID : S_HDMV/PGS
Codec ID/Info : Picture based subtitle format used on BDs/HD-DVDs
Duration : 1 h 41 min
Bit rate : 28.0 kb/s
Count of elements : 2030
Stream size : 20.3 MiB (1%)
Title : English full (All the movie) PGS
Language : English
Default : No
Forced : No

Text #6
ID : 11
Format : PGS
Muxing mode : zlib
Codec ID : S_HDMV/PGS
Codec ID/Info : Picture based subtitle format used on BDs/HD-DVDs
Duration : 1 h 43 min
Bit rate : 30.9 kb/s
Count of elements : 2318
Stream size : 22.9 MiB (1%)
Title : English full SDH PGS
Language : English
Default : No
Forced : No

Menu
00:00:00.000 : :01 - 00:00:00
00:07:06.384 : :02 - 00:07:06
00:13:56.210 : :03 - 00:13:56
00:20:36.860 : :04 - 00:20:36
00:25:05.545 : :05 - 00:25:05
00:32:11.179 : :06 - 00:32:11
00:41:41.499 : :07 - 00:41:41
00:46:39.379 : :08 - 00:46:39
00:53:35.629 : :09 - 00:53:35
01:02:28.494 : :10 - 01:02:28
01:08:59.343 : :11 - 01:08:59
01:12:42.524 : :12 - 01:12:42
01:19:15.917 : :13 - 01:19:15
01:26:49.996 : :14 - 01:26:49
01:31:07.378 : :15 - 01:31:07
01:38:31.530 : :16 - 01:38:31
01:42:36.818 : :17 - 01:42:36

Discussion

Comments 0

Post Your Comment

Files in this torrent

FILENAMESIZE
Bloodshot 2020 Bonus - 5 Deleted Scenes VOSTFR.mkv216.6 MB
Bloodshot 2020 Bonus - Bluray Looping MUSIQUE.mkv6.5 MB
Bloodshot 2020 Bonus - Bluray Opening MUSIQUE.mkv6.5 MB
Bloodshot 2020 Bonus - Forgotten Soldiers - The Cast VOSTFR.mkv102.4 MB
Bloodshot 2020 Bonus - Gag Reel VOSTFR.mkv17.2 MB
Bloodshot 2020 Bonus - Initiate Sequence - Directing VOSTFR.mkv108.2 MB
Bloodshot 2020 BR EAC3 VFF VFQ ENG 1080p x265 10Bits T0M.mkv3.9 GB
Bloodshot 2020.m3u844 B
Bloodshot 2020.nfo65.5 KB
Bloodshot 2020.sfv493 B

Alternative Torrents for 'Bloodshot Bonus BR EAC VFF VFQ ENG Bits TM'.

TORRENT NAMEADDEDSIZESEEDSPEERSHEALTH
8/3/2020699 MB60794052
8/3/2020883 MB56813798
7/30/20202.2 GB54897
8/5/20201.8 GB19521
7/30/20201.7 GB17614
7/31/20201019 MB17326
8/6/20202.5 GB167108
7/24/2020698 MB14740
Yesterday152 MB13025
8/6/2020918 MB120110
7/27/2020211 MB1145
8/3/20201.5 GB11146
8/3/2020273 MB1102
8/4/20203 GB9335
8/5/20201.6 GB9216