Fantasy Island (2020) 720p BDRip X264 Multi Audi [Hindi Tel, Tam Eng] AAC Eng Sub

Torrent Details

Fantasy Island (2020) 720p BDRip  x264 Multi Audi [Hindi Tel, Tam Eng] AAC   Eng Sub
Fantasy Island (2020) 720p BDRip  x264 Multi Audi [Hindi Tel, Tam Eng] AAC   Eng Sub

NAME
Fantasy Island (2020) 720p BDRip x264 Multi Audi [Hindi Tel, Tam Eng] AAC Eng Sub.torrent
CATEGORY
Movies
INFOHASH
251fc66829df8cb3c12fe6eccbda1f9989d38ae2
SIZE
1.1 GB in 1 file
ADDED
Uploaded on 12-07-2020 by our crawler pet called "Spidey".
SWARM
0 seeders & 0 peers
RATING
No votes yet.

Please login to vote for this torrent.


Description

Fantasy Island (2020)
1h 49min | Adventure, Fantasy, Horror | 14 February 2020 (USA)

When the owner and operator of a luxurious island invites a collection of guests
to live out their most elaborate fantasies in relative seclusion, chaos quickly descends.

Director: Jeff Wadlow
Writers: Jillian Jacobs, Christopher Roach
Stars: Michael Peña, Maggie Q, Lucy Hale.

Format : Matroska
Format version : Version 4
File size : 1.12 GiB
Duration : 1 h 49 min
Overall bit rate : 1 464 kb/s

Video
ID : 1
Format : AVC
Format/Info : Advanced Video Codec
Format profile : [email protected]
Format settings : CABAC / 4 Ref Frames
Format settings, CABAC : Yes
Format settings, Reference : 4 frames
Codec ID : V_MPEG4/ISO/AVC
Duration : 1 h 49 min
Bit rate : 1 150 kb/s
Width : 1 280 pixels
Height : 534 pixels
Display aspect ratio : 2.40:1
Original display aspect rat : 2.40:1
Frame rate mode : Constant
Frame rate : 23.976 (24000/1001) FPS
Color space : YUV
Chroma subsampling : 4:2:0
Bit depth : 8 bits
Scan type : Progressive
Bits/(Pixel*Frame) : 0.070
Stream size : 900 MiB (79%)
Writing library : x264 core

Audio #1
ID : 2
Format : AAC LC
Format/Info : Advanced Audio Codec Low Complexity
Codec ID : A_AAC-2
Duration : 1 h 49 min
Bit rate : 77.5 kb/s
Channel(s) : 2 channels
Channel layout : L R
Sampling rate : 44.1 kHz
Frame rate : 43.066 FPS (1024 SPF)
Compression mode : Lossy
Delay relative to video : -21 ms
Stream size : 60.6 MiB (5%)
Language : Hindi
Default : Yes
Forced : Yes

Audio #2
ID : 3
Format : AAC LC
Format/Info : Advanced Audio Codec Low Complexity
Codec ID : A_AAC-2
Duration : 1 h 49 min
Bit rate : 77.5 kb/s
Channel(s) : 2 channels
Channel layout : L R
Sampling rate : 44.1 kHz
Frame rate : 43.066 FPS (1024 SPF)
Compression mode : Lossy
Delay relative to video : -21 ms
Stream size : 60.6 MiB (5%)
Language : Telugu
Default : No
Forced : No

Audio #3
ID : 4
Format : AAC LC
Format/Info : Advanced Audio Codec Low Complexity
Codec ID : A_AAC-2
Duration : 1 h 49 min
Bit rate : 77.5 kb/s
Channel(s) : 2 channels
Channel layout : L R
Sampling rate : 44.1 kHz
Frame rate : 43.066 FPS (1024 SPF)
Compression mode : Lossy
Delay relative to video : -21 ms
Stream size : 60.6 MiB (5%)
Language : Tamil
Default : No
Forced : No

Audio #4
ID : 5
Format : AAC LC
Format/Info : Advanced Audio Codec Low Complexity
Codec ID : A_AAC-2
Duration : 1 h 49 min
Bit rate : 77.6 kb/s
Channel(s) : 2 channels
Channel layout : L R
Sampling rate : 44.1 kHz
Frame rate : 43.066 FPS (1024 SPF)
Compression mode : Lossy
Delay relative to video : -21 ms
Stream size : 60.7 MiB (5%)
Language : English
Default : No
Forced : No

Text
ID : 6
Format : UTF-8
Codec ID : S_TEXT/UTF8
Codec ID/Info : UTF-8 Plain Text
Duration : 1 h 42 min
Bit rate : 62 b/s
Count of elements : 1526
Stream size : 47.2 KiB (0%)
Language : English
Default : Yes
Forced : No

Discussion

Comments 0

Post Your Comment

Files in this torrent

FILENAMESIZE
Fantasy Island (2020) 720p BDRip x264 Multi Audi [Hindi Tel, Tam Eng] AAC . Eng Sub.mkv1.1 GB

Alternative Torrents for 'Fantasy Island Multi Audi Hindi Tel Tam Eng AAC Eng Sub'.

TORRENT NAMEADDEDSIZESEEDSPEERSHEALTH
7/12/20201.1 GB00