Fantasy Island (2020) Blu-Ray - 720p - (DD 5.1 - 256Kbps) [Tel + Tam + Hin + Eng] - TamilMV

Torrent Details


Fantasy Island (2020) Blu-Ray - 720p - (DD 5.1 - 256Kbps) [Tel + Tam + Hin + Eng] - TamilMV

NAME
Fantasy Island (2020) Blu-Ray - 720p - (DD 5.1 - 256Kbps) [Tel + Tam + Hin + Eng] - TamilMV.torrent
CATEGORY
Movies
INFOHASH
5a565526627e37486d32f26cc80882892d4a7566
SIZE
1.5 GB in 2 files
ADDED
Uploaded on 12-07-2020 by our crawler pet called "Spidey".
SWARM
0 seeders & 0 peers
RATING
No votes yet.

Please login to vote for this torrent.


Description

Fantasy Island (2020) BluRay - 720p - (DD5.1 - 256Kbps) [Telugu + Tamil + Hindi + Eng] - 1.5GB - ESub - TamilMV



IMDb Link : https://www.imdb.com/title/tt0983946/







SCREENSHOTS :













Media Info :



Quote:Video

ID                          : 1

Format                      : AVC

Format/Info                 : Advanced Video Codec

Format profile              : [email protected]

Format settings             : CABAC / 4 Ref Frames

Format settings, CABAC      : Yes

Format settings, Reference  : 4 frames

Codec ID                    : V_MPEG4/ISO/AVC

Duration                    : 1 h 49 min

Bit rate                    : 1 150 kb/s

Width                       : 1 280 pixels

Height                      : 544 pixels

Display aspect ratio        : 2.35:1

Frame rate mode             : Constant

Frame rate                  : 23.976 (24000/1001) FPS

Color space                 : YUV

Chroma subsampling          : 4:2:0

Bit depth                   : 8 bits

Scan type                   : Progressive

Bits/(Pixel*Frame)          : 0.069

Stream size                 : 878 MiB (56%)

Writing library             : x264 core 157 r2935 545de2f

Default                     : Yes

Forced                      : No

Color range                 : Limited

Color primaries             : BT.709

Transfer characteristics    : BT.709

Matrix coefficients         : BT.709



Audio #1

ID                          : 2

Format                      : AC-3

Format/Info                 : Audio Coding 3

Commercial name             : Dolby Digital

Codec ID                    : A_AC3

Duration                    : 1 h 49 min

Bit rate mode               : Constant

Bit rate                    : 256 kb/s

Channel(s)                  : 6 channels

Channel layout              : L R C LFE Ls Rs

Sampling rate               : 48.0 kHz

Frame rate                  : 31.250 FPS (1536 SPF)

Compression mode            : Lossy

Stream size                 : 200 MiB (13%)

Language                    : Telugu

Service kind                : Complete Main

Default                     : Yes

Forced                      : No



Audio #2

ID                          : 3

Format                      : AC-3

Format/Info                 : Audio Coding 3

Commercial name             : Dolby Digital

Codec ID                    : A_AC3

Duration                    : 1 h 49 min

Bit rate mode               : Constant

Bit rate                    : 256 kb/s

Channel(s)                  : 6 channels

Channel layout              : L R C LFE Ls Rs

Sampling rate               : 48.0 kHz

Frame rate                  : 31.250 FPS (1536 SPF)

Compression mode            : Lossy

Stream size                 : 200 MiB (13%)

Language                    : Tamil

Service kind                : Complete Main

Default                     : No

Forced                      : No



Audio #3

ID                          : 4

Format                      : AC-3

Format/Info                 : Audio Coding 3

Commercial name             : Dolby Digital

Codec ID                    : A_AC3

Duration                    : 1 h 49 min

Bit rate mode               : Constant

Bit rate                    : 256 kb/s

Channel(s)                  : 6 channels

Channel layout              : L R C LFE Ls Rs

Sampling rate               : 48.0 kHz

Frame rate                  : 31.250 FPS (1536 SPF)

Compression mode            : Lossy

Stream size                 : 200 MiB (13%)

Language                    : Hindi

Service kind                : Complete Main

Default                     : No

Forced                      : No



Audio #4

ID                          : 5

Format                      : AAC LC

Format/Info                 : Advanced Audio Codec Low Complexity

Codec ID                    : A_AAC-2

Duration                    : 1 h 49 min

Bit rate                    : 125 kb/s

Channel(s)                  : 2 channels

Channel layout              : L R

Sampling rate               : 48.0 kHz

Frame rate                  : 46.875 FPS (1024 SPF)

Compression mode            : Lossy

Stream size                 : 97.9 MiB (6%)

Language                    : English

Default                     : No

Forced                      : No



Text

ID                          : 6

Format                      : UTF-8

Codec ID                    : S_TEXT/UTF8

Codec ID/Info               : UTF-8 Plain Text

Duration                    : 1 h 42 min

Bit rate                    : 62 b/s

Count of elements           : 1397

Stream size                 : 46.9 KiB (0%)

Language                    : English

Default                     : Yes

Forced                      : No

Discussion

Comments 0

Post Your Comment

Files in this torrent

FILENAMESIZE
A TamilMV Release.txt284 B
Fantasy Island (2020) Blu-Ray - 720p - (DD5.1 - 256Kbps) [Tel + Tam + Hin + Eng] - TamilMV.mkv1.5 GB

Alternative Torrents for 'Fantasy Island BluRay DD Tel Tam Hin Eng TamilMV'.

TORRENT NAMEADDEDSIZESEEDSPEERSHEALTH
8/3/2020883 MB56813798
8/3/2020699 MB36732449
8/2/2020920 MB89893
7/31/20201.9 GB822304
7/30/20201.8 GB68992
8/7/20201.1 GB687732
8/7/20202.3 GB623544
7/30/20202.2 GB56598
8/2/20203.8 GB529328
8/7/2020875 MB475389
7/9/20174.6 GB446166
7/24/20204 GB42151
8/6/2020967 MB364212
8/1/20201 GB35257
Yesterday1.8 GB331359