Beck- Mongolian Chop Squad

Torrent Details


Beck- Mongolian Chop Squad

NAME
Beck- Mongolian Chop Squad.torrent
CATEGORY
Anime
INFOHASH
3dcdb894065de2e29eac6b997670f3d4521d9359
SIZE
1.4 GB in 33 files
ADDED
Uploaded on 20-11-2012 by our crawler pet called "Spidey".
SWARM
0 seeders & 0 peers
RATING
No votes yet.

Please login to vote for this torrent.


Description

All The Episodes of BECK: Mongolian Chop Squad( Complete Ep 1-26) at 480p Video Quality :)

Please seed after you download.

--------------------------------------------------------------------------------

Cover
--------------------------------------------------------------------------------


--------------------------------------------------------------------------------


---------------------------------------------------------------------------------

General
--------

Format : MPEG-4
Format profile : Base Media
Codec ID : isom
File size : 52.1 MiB
Duration : 24mn 44s
Overall bit rate mode : Variable
Overall bit rate : 294 Kbps


---------------------------------------

ID : 1
Format : AVC
Format/Info : Advanced Video Codec
Format profile : [email protected]
Format settings, CABAC : Yes
Format settings, ReFrames : 5 frames
Codec ID : avc1
Codec ID/Info : Advanced Video Coding
Duration : 24mn 44s
Bit rate mode : Variable
Bit rate : 260 Kbps
Maximum bit rate : 1 643 Kbps
Width : 512 pixels
Height : 384 pixels
Display aspect ratio : 4:3
Frame rate mode : Constant
Frame rate : 23.976 fps
Color space : YUV
Chroma subsampling : 4:2:0
Bit depth : 8 bits
Scan type : Progressive
Bits/(Pixel*Frame) : 0.055
Stream size : 45.9 MiB (88%)
Writing library : x264 core 54 svn-636M


----------------------------------

ID : 2
Format : AAC
Format/Info : Advanced Audio Codec
Format profile : HE-AACv2 / HE-AAC / LC
Codec ID : 40
Duration : 24mn 44s
Bit rate mode : Variable
Bit rate : 32.0 Kbps
Maximum bit rate : 35.5 Kbps
Channel(s) : 2 channels / 1 channel / 1 channel
Channel positions : Front: L R / Front: C / Front: C
Sampling rate : 44.1 KHz / 44.1 KHz / 22.05 KHz
Compression mode : Lossy
Stream size : 5.66 MiB (11%)

----------------------------------------------------------------------------------


----------------------------------------------------------------------------------














----------------------------------------------------------------------------------

Story
----------------------------------------------------------------------------------

Tanaka Yukio, better known by his nickname Koyuki is a 14 year old who feels disconnected from life in general. Through the act of saving a mismatched dog, he meets guitarist Minami Ryuusuke, and becomes involved in Ryuusuke's new band BECK. Koyuki's life starts to change as the band struggles towards fame.

----------------------------------------------------------------------------------

Thank you for downloading.

Enjoy Watching :)
----------------------------------------------------------------------------------

Facebook
----------------------------------------------------------------------------------


Find Me on Facebook :)

or

[email protected]

Discussion

Comments 0

Post Your Comment

Files in this torrent

FILENAMESIZE
Beck Ep 01.mp452.1 MB
Beck Ep 02.mp452.1 MB
Beck Ep 03.mp451.4 MB
Beck Ep 04.mp452 MB
Beck Ep 05.mp451.4 MB
Beck Ep 06.mp451.4 MB
Beck Ep 07.mp451.4 MB
Beck Ep 08.mp452.1 MB
Beck Ep 09.flv60.2 MB
Beck Ep 10.mp451.2 MB
Beck Ep 11.mp451.2 MB
Beck Ep 12.mp451.4 MB
Beck Ep 13.mp451.4 MB
Beck Ep 14.flv34.6 MB
Beck Ep 15.mp451.4 MB
Beck Ep 16.mp451.4 MB
Beck Ep 17.flv60.5 MB
Beck Ep 18.flv60.5 MB
Beck Ep 19.flv60.5 MB
Beck Ep 20.flv60.5 MB
Beck Ep 21.flv60.5 MB
Beck Ep 22.flv60.5 MB
Beck Ep 23.flv60.5 MB
Beck Ep 24.flv60.5 MB
Beck Ep 25.flv60.5 MB
Beck Ep 26.flv60 MB
Cover/Beck [Cursator].jpg482.7 KB
Screenshots/Beck 01.png163.5 KB
Screenshots/Beck 02.png280.6 KB
Screenshots/Beck 03.png210 KB
Screenshots/Beck 04.png155.7 KB
Screenshots/Beck 05.png84.9 KB
Screenshots/Beck 06.png134.8 KB

Alternative Torrents for 'Beck Mongolian Chop Squad'.

TORRENT NAMEADDEDSIZESEEDSPEERSHEALTH
4/27/201911.4 GB00
11/29/20178.4 GB00
11/14/20134.2 GB00
11/20/20121.4 GB00
4/3/2011330 MB00
12/5/20107.7 GB00