Hightown (2020) S01 (4Kto1080p STAN Webrip X265 10bit EAC3 5.1 - HxD) [TAoE]

Torrent Details

Hightown (2020) S01 (4Kto1080p STAN Webrip x265 10bit EAC3 5.1 - HxD) <span style=color:#fc9c6d>[TAoE]</span>

NAME
Hightown (2020) S01 (4Kto1080p STAN Webrip x265 10bit EAC3 5.1 - HxD) [TAoE].torrent
CATEGORY
Television
INFOHASH
e9ec0ea3e88a57fd492f0b70c349823ed7771d9a
SIZE
10.6 GB in 8 files
ADDED
Uploaded on 13-07-2020 by our crawler pet called "Spidey".
SWARM
0 seeders & 0 peers
RATING
No votes yet.

Please login to vote for this torrent.


Description



Hello everyone,

We are TAoE, a small team of passionate encoders who love encoding. We try our best to provide you with high quality releases.



Requests for movies and shows are welcome.

We have a form for encode requests which can be found here

Encode requests form

submit your request and it will be added to our encoding request list

You can view our encoding request list here

Encode requests list





When or if we encode it will depend on if we can obtain a good source to encode with and

if one of the TAoE encoders chooses to encode it. Unfortunately we are not able to encode everything,

new members are welcome as that helps us encode more content!



If you would like to join TAoE submit your request here!

TAoE member applications form









Hightown (2020) IMDB























Media Information



General

Unique ID                                : 242410234500497706725751476880020246736 (0xB65E83505DCCC69497C46243DEFA90D0)

Complete name                            : Hightown (2020) S01E08 #Blessed (4Kto1080p STAN Webrip x265 10bit AAC 5.1 - HxD) [TAoE].mkv

Format                                   : Matroska

Format version                           : Version 4

File size                                : 1.19 GiB

Duration                                 : 56 min 33 s

Overall bit rate                         : 3 024 kb/s

Movie name                               : Hightown (2020) S01E08 #Blessed (4Kto1080p STAN Webrip x265 10bit AAC 5.1 - HxD) [TAoE].mkv

Writing application                      : Lavf58.29.100

Writing library                          : Lavf58.29.100

ErrorDetectionType                       : Per level 1



Video

ID                                       : 1

Format                                   : HEVC

Format/Info                              : High Efficiency Video Coding

Format profile                           : Main [email protected]@Main

Codec ID                                 : V_MPEGH/ISO/HEVC

Duration                                 : 56 min 33 s

Bit rate                                 : 2 574 kb/s

Width                                    : 1 920 pixels

Height                                   : 1 080 pixels

Display aspect ratio                     : 16:9

Frame rate mode                          : Constant

Frame rate                               : 23.976 (24000/1001) FPS

Color space                              : YUV

Chroma subsampling                       : 4:2:0

Bit depth                                : 10 bits

Bits/(Pixel*Frame)                       : 0.052

Stream size                              : 1.02 GiB (85%)

Title                                    : Encoded by HxD for TAoE using Shinguru V1.2

Writing library                          : x265 3.2+35-acc5d16999e2:[Windows][GCC 9.2.1][64 bit] 10bit

Encoding settings                        : cpuid=1111039 / frame-threads=3 / numa-pools=8 / wpp / no-pmode / no-pme / no-psnr / no-ssim / log-level=2 / input-csp=1 / input-res=1920x1080 / interlace=0 / total-frames=0 / level-idc=0 / high-tier=1 / uhd-bd=0 / ref=4 / no-allow-non-conformance / no-repeat-headers / annexb / no-aud / no-hrd / info / hash=0 / no-temporal-layers / open-gop / min-keyint=23 / keyint=250 / gop-lookahead=0 / bframes=8 / b-adapt=2 / b-pyramid / bframe-bias=0 / rc-lookahead=80 / lookahead-slices=4 / scenecut=40 / hist-scenecut=0 / radl=0 / no-splice / no-intra-refresh / ctu=64 / min-cu-size=8 / no-rect / no-amp / max-tu-size=32 / tu-inter-depth=1 / tu-intra-depth=1 / limit-tu=0 / rdoq-level=2 / dynamic-rd=0.00 / no-ssim-rd / signhide / no-tskip / nr-intra=0 / nr-inter=0 / no-constrained-intra / no-strong-intra-smoothing / max-merge=3 / limit-refs=3 / limit-modes / me=3 / subme=5 / merange=57 / temporal-mvp / no-frame-dup / no-hme / weightp / no-weightb / no-analyze-src-pics / deblock=0:0 / sao / no-sao-non-deblock / rd=4 / selective-sao=4 / no-early-skip / rskip / no-fast-intra / no-tskip-fast / no-cu-lossless / no-b-intra / no-splitrd-skip / rdpenalty=0 / psy-rd=1.30 / psy-rdoq=2.00 / no-rd-refine / no-lossless / cbqpoffs=0 / crqpoffs=0 / rc=crf / crf=22.0 / qcomp=0.60 / qpstep=4 / stats-write=0 / stats-read=0 / ipratio=1.40 / pbratio=1.30 / aq-mode=4 / aq-strength=1.10 / cutree / zone-count=0 / no-strict-cbr / qg-size=32 / no-rc-grain / qpmax=69 / qpmin=0 / no-const-vbv / sar=1 / overscan=0 / videoformat=5 / range=0 / colorprim=2 / transfer=2 / colormatrix=2 / chromaloc=0 / display-window=0 / cll=0,0 / min-luma=0 / max-luma=1023 / log2-max-poc-lsb=8 / vui-timing-info / vui-hrd-info / slices=1 / no-opt-qp-pps / no-opt-ref-list-length-pps / no-multi-pass-opt-rps / scenecut-bias=0.05 / hist-threshold=0.01 / no-opt-cu-delta-qp / no-aq-motion / no-hdr10 / no-hdr10-opt / no-dhdr10-opt / no-idr-recovery-sei / analysis-reuse-level=0 / analysis-save-reuse-level=0 / analysis-load-reuse-level=0 / scale-factor=0 / refine-intra=0 / refine-inter=0 / refine-mv=1 / refine-ctu-distortion=0 / no-limit-sao / ctu-info=0 / no-lowpass-dct / refine-analysis-type=0 / copy-pic=1 / max-ausize-factor=1.0 / no-dynamic-refine / no-single-sei / no-hevc-aq / no-svt / no-field / qp-adaptation-range=1.00 / no-scenecut-aware-qpconformance-window-offsets / right=0 / bottom=0

Language                                 : English

Default                                  : Yes

Forced                                   : No

Color range                              : Limited



Audio

ID                                       : 2

Format                                   : AAC LC

Format/Info                              : Advanced Audio Codec Low Complexity

Codec ID                                 : A_AAC-2

Duration                                 : 56 min 33 s

Bit rate                                 : 445 kb/s

Channel(s)                               : 6 channels

Channel layout                           : C L R Ls Rs LFE

Sampling rate                            : 48.0 kHz

Frame rate                               : 46.875 FPS (1024 SPF)

Compression mode                         : Lossy

Stream size                              : 180 MiB (15%)

Language                                 : English

Default                                  : Yes

Forced                                   : No



Text

ID                                       : 3

Format                                   : UTF-8

Codec ID                                 : S_TEXT/UTF8

Codec ID/Info                            : UTF-8 Plain Text

Duration                                 : 56 min 12 s

Bit rate                                 : 94 b/s

Count of elements                        : 1193

Stream size                              : 39.1 KiB (0%)

Title                                    : English (SDH)

Language                                 : English

Default                                  : No

Forced                                   : No





Source

2160p STAN WEB-DL PETRiFiED

Discussion

Comments 0

Post Your Comment

Files in this torrent

FILENAMESIZE
Hightown (2020) S01E01 Love You Like A Sister (4Kto1080p STAN Webrip x265 10bit EAC3 5.1 - HxD) [TAoE].mkv1.5 GB
Hightown (2020) S01E02 Severely Weatherbeaten (4Kto1080p STAN Webrip x265 10bit EAC3 5.1 - HxD) [TAoE].mkv1.7 GB
Hightown (2020) S01E03 Rebellion Dogs (4Kto1080p STAN Webrip x265 10bit EAC3 5.1 - HxD) [TAoE].mkv1.2 GB
Hightown (2020) S01E04 B.F.O. (4Kto1080p STAN Webrip x265 10bit EAC3 5.1 - HxD) [TAoE].mkv1.3 GB
Hightown (2020) S01E05 The Best You'll Feel All Day (4Kto1080p STAN Webrip x265 10bit EAC3 5.1 - HxD) [TAoE].mkv1.1 GB
Hightown (2020) S01E06 The White Whale (4Kto1080p STAN Webrip x265 10bit AAC 5.1 - HxD) [TAoE].mkv1.1 GB
Hightown (2020) S01E07 Everybody's Got A Cousin in Miami (4Kto1080p STAN Webrip x265 10bit AAC 5.1 - HxD) [TAoE].mkv1.4 GB
Hightown (2020) S01E08 #Blessed (4Kto1080p STAN Webrip x265 10bit AAC 5.1 - HxD) [TAoE].mkv1.2 GB

Alternative Torrents for 'Hightown Ktop STAN bit EAC HxD'.

There are no alternative torrents found.