Entourage 2015 MULTI 2160p HDR WebRip DTS-HDMA 5.1 HEVC-DDR

Torrent Details

Entourage 2015 MULTI 2160p HDR WebRip DTS-HDMA 5.1 HEVC-DDR

NAME
Entourage 2015 MULTI 2160p HDR WebRip DTS-HDMA 5.1 HEVC-DDR.torrent
CATEGORY
Movies
INFOHASH
57fb1acf0e8dbff768117730503f3a25a81e5041
SIZE
10.1 GB in 1 file
ADDED
Uploaded on 13-07-2020 by our crawler pet called "Spidey".
SWARM
0 seeders & 0 peers
RATING
No votes yet.

Please login to vote for this torrent.


Description















Format                                   : Matroska

Format version                           : Version 4

File size                                : 10.1 GiB

Duration                                 : 1 h 44 min

Overall bit rate mode                    : Variable

Overall bit rate                         : 13.9 Mb/s

Encoded date                             : UTC 2020-07-12 16:19:55

Writing application                      : mkvmerge v47.0.0 ('Black Flag') 64-bit

Writing library                          : libebml v1.3.10 + libmatroska v1.5.2



Video

ID                                       : 1

Format                                   : HEVC

Format/Info                              : High Efficiency Video Coding

Commercial name                          : HDR10

Format profile                           : Main [email protected]@High

Codec ID                                 : V_MPEGH/ISO/HEVC

Duration                                 : 1 h 44 min

Bit rate                                 : 9 838 kb/s

Width                                    : 3 840 pixels

Height                                   : 1 600 pixels

Display aspect ratio                     : 2.40:1

Frame rate mode                          : Constant

Frame rate                               : 23.976 (24000/1001) FPS

Color space                              : YUV

Chroma subsampling                       : 4:2:0

Bit depth                                : 10 bits

Bits/(Pixel*Frame)                       : 0.067

Stream size                              : 7.18 GiB (71%)

Language                                 : English

Default                                  : Yes

Forced                                   : No

Color range                              : Limited

Color primaries                          : BT.2020

Transfer characteristics                 : PQ

Matrix coefficients                      : BT.2020 non-constant

Mastering display color primaries        : Display P3

Mastering display luminance              : min: 0.0050 cd/m2, max: 4000 cd/m2

Maximum Content Light Level              : 4000 cd/m2

Maximum Frame-Average Light Level        : 1000 cd/m2



Audio #1

ID                                       : 2

Format                                   : DTS XLL

Format/Info                              : Digital Theater Systems

Commercial name                          : DTS-HD Master Audio

Codec ID                                 : A_DTS

Duration                                 : 1 h 44 min

Bit rate mode                            : Variable

Bit rate                                 : 3 571 kb/s

Channel(s)                               : 6 channels

Channel layout                           : C L R Ls Rs LFE

Sampling rate                            : 48.0 kHz

Frame rate                               : 93.750 FPS (512 SPF)

Bit depth                                : 24 bits

Compression mode                         : Lossless

Delay relative to video                  : 3 ms

Stream size                              : 2.61 GiB (26%)

Title                                    : English DTS-HD Master Audio 5.1

Language                                 : English

Default                                  : No

Forced                                   : No



Audio #2

ID                                       : 3

Format                                   : AC-3

Format/Info                              : Audio Coding 3

Commercial name                          : Dolby Digital

Codec ID                                 : A_AC3

Duration                                 : 1 h 44 min

Bit rate mode                            : Constant

Bit rate                                 : 448 kb/s

Channel(s)                               : 6 channels

Channel layout                           : L R C LFE Ls Rs

Sampling rate                            : 48.0 kHz

Frame rate                               : 31.250 FPS (1536 SPF)

Bit depth                                : 16 bits

Compression mode                         : Lossy

Delay relative to video                  : 24 ms

Stream size                              : 335 MiB (3%)

Title                                    : Français Dolby Digital Audio 5.1

Language                                 : French



Subs: En fr



MikeKhan /Desitorrents.tv

Discussion

Comments 0

Post Your Comment

Files in this torrent

FILENAMESIZE
Entourage.2015.MULTI.2160p.HDR.WebRip.DTS-HDMA.5.1.HEVC-DDR.mkv10.1 GB

Alternative Torrents for 'Entourage MULTI HDR DTSHDMA HEVCDDR'.

There are no alternative torrents found.