Warning! Do NOT Download Without a VPN!
Your IP Address is .   Location is United States
Your Internet Provider and Government can track your download activities! Hide your IP ADDRESS with a VPN!
We strongly recommend using a VPN service to anonymize your torrent downloads. It's FREE!
START YOUR FREE TRIAL NOW!

Gioventù, Amore E Rabbia (1962) Tony Richardson [XviD - Italian Ac3] MIRCrew

Torrent Details

Gioventù, amore e rabbia (1962) Tony Richardson [XviD - Italian Ac3] MIRCrew

NAME
Gioventù, amore e rabbia (1962) Tony Richardson [XviD - Italian Ac3] MIRCrew.torrent
CATEGORY
Movies
INFOHASH
0d0fa45c54070572ca459984f2c3019b54420c50
SIZE
1.3 GB in 1 file
ADDED
Uploaded on 20-12-2012 by 2.
SWARM
0 seeders & 0 peers
RATING
No votes yet.

Please login to vote for this torrent.


Description

Gioventù, amore e rabbia (1962) Tony Richardson [XviD - Italian Ac3] MIRCrew

mircrewrel02.gif

*********************************************

imdblogo.gif

Gioventù, amore e rabbia (1962) Tony Richardson

77177_100858233319064_2502715_n.jpg

banner_scheda.gif

TITOLO ORIGINALE: The Loneliness of the Long Distance Runner
GENERE: Drammatico, Sociale
REGIA: Tony Richardson
SCENEGGIATURA: Alan Sillitoe
FOTOGRAFIA: Walter Lassally
MONTAGGIO: Antony Gibbs
MUSICHE: John Addison
PRODUZIONE: LION INTERNATIONAL FILM (LONDON)
DISTRIBUZIONE: MEDUSA
PAESE: Gran Bretagna 1962
DURATA: 104 Min
FORMATO: PANORAMICA
SOGGETTO: Novella di Alan Sillitoe

*********************

Scritto da Alan Silitoe a partire da un proprio romanzo, un film avvincente e libertario che divenne il manifesto del Free Cinema e dei giovani arrabbiati inglesi.

vlcsnap-2012-12-19-15h41m20s108.jpg
vlcsnap-2012-12-19-15h41m27s181.jpg
vlcsnap-2012-12-19-15h42m07s20.jpg

banner_cast.gif

Tom Courtenay, Michael Redgrave, Avis Bunnage, Alec Mecowen, James Bolam, Joe Rombinson

banner_trama.gif

Colin Smith, in riformatorio per furto, è un bravissimo corridore. Vincere l'annuale gara campestre vorrebbe dire rimettersi in pace con il mondo, con il direttore del riformatorio e con se

stesso. A pochi metri dall'arrivo e con grande vantaggio sul secondo, Colin.............................

cWb6Z.gif

banner_dati_file.gif

General
Complete name : Gioventù, amore e rabbia (1962) Tony Richardson.avi
Format : AVI
Format/Info : Audio Video Interleave
File size : 1.28 GiB
Duration : 1h 39mn
Overall bit rate : 1 838 Kbps
Writing application : VirtualDubMod 1.5.10.2 (build 2540/release)
Writing library : VirtualDubMod build 2540/release

Video
ID : 0
Format : MPEG-4 Visual
Format profile : Advanced Simple@L5
Format settings, BVOP : Yes
Format settings, QPel : No
Format settings, GMC : No warppoints
Format settings, Matrix : Default (H.263)
Muxing mode : Packed bitstream
Codec ID : XVID
Codec ID/Hint : XviD
Duration : 1h 39mn
Bit rate : 1 637 Kbps
Width : 720 pixels
Height : 440 pixels
Display aspect ratio : 1.636
Frame rate : 25.000 fps
Color space : YUV
Chroma subsampling : 4:2:0
Bit depth : 8 bits
Scan type : Progressive
Bits/(Pixel*Frame) : 0.207
Stream size : 1.14 GiB (89%)
Writing library : XviD 1.1.2 (UTC 2006-11-01)

Audio
ID : 1
Format : AC-3
Format/Info : Audio Coding 3
Mode extension : CM (complete main)
Codec ID : 2000
Duration : 1h 39mn
Bit rate mode : Constant
Bit rate : 192 Kbps
Channel(s) : 2 channels
Channel positions : Front: L R
Sampling rate : 48.0 KHz
Bit depth : 16 bits
Stream size : 137 MiB (10%)
Alignment : Aligned on interleaves
Interleave, duration : 40 ms (1.00 video frame)
Interleave, preload duration : 512 ms

Discussion

Comments 0

Post Your Comment

Files in this torrent

FILENAMESIZE
Gioventù, amore e rabbia (1962) Tony Richardson.avi1.3 GB

Alternative Torrents for 'Gioventù amore rabbia Tony Richardson'.

There are no alternative torrents found.