Greyhound 2020 WEB-DL 1080p HDREZKA STUDIO

Torrent Details

Greyhound 2020 WEB-DL 1080p HDREZKA STUDIO
Greyhound 2020 WEB-DL 1080p HDREZKA STUDIO

NAME
Greyhound 2020 WEB-DL 1080p HDREZKA STUDIO.torrent
CATEGORY
Movies
INFOHASH
b6f45af0c865e7dac93da278a315c7fcd45e7bf3
SIZE
7.1 GB in 1 file
ADDED
Uploaded on 15-07-2020 by our crawler pet called "Spidey".
SWARM
0 seeders & 0 peers
RATING
No votes yet.

Please login to vote for this torrent.


Description

Название: Грейхаунд

Оригинальное название: Greyhound

Год выхода: 2020

Жанр: Военный, боевик, история, биография

Режиссер: Аарон Шнайдер



В ролях:

Том Хэнкс, Стивен Грэм, Элизабет Шу, Майкл Бенц, Роб Морган, Дэвид Мальдонадо, Джими Стэнтон, Мэтт Хелм, Том Бриттни, Мануэль Рульфо и др.



Описание сериала:

Февраль 1942 года, Северная Атлантика. Морской конвой с войсками и грузами для союзников под патрулированием ВВС США направляется в порт Ливерпуля. Войдя в недосягаемый для авиации сектор, известный как «чёрная яма», судна подвергаются нападению группы немецких подлодок. Капитану головного эсминца «Грейхаунд» Эрнсту Краузе, до этого не принимавшему участия в военных действиях, приходится руководить обороной и отбиваться от так называемой «волчьей стаи».



Страна: США, Китай, Канада

Студия: Bron Studios, Columbia Pictures Corporation, Creative Artists Agency (CAA), Creative Wealth Media Finance, Playtone

Продолжительность: 01:31:42

Перевод: Профессиональный (многоголосый, закадровый) HDRezka Studio

Субтитры: Русские (Forsed, Full), украинские (Full), английские и др.







Файл

Формат: MKV

Качество: WEB-DL (1080p)



Видео: 1920x802 (16:9), 23,976 fps, AVC (х264), [email protected], 10.1 Mbit/s avg, 0.273 bit/pixel

Аудио RUS: 48 kHz, AC3 Dolby Digital, 2/0 (L,R) ch, ~192 kbps

Аудио ENG: 48 kHz, E-AC3+Atmos, 3/2 (L,C,R,l,r) + LFE ch, ~768 kbps











ИсходникGreyhound.2020.1080p.ATVP.WEB-DL.DDP5.1.Atmos.x264-MZABIMediaInfoОбщее

Уникальный идентификатор : 322922686449650622387871385338363228549 (0xF2F0A5ABFC334A9D596AECBB5A8BB185)

Полное имя : Greyhound.2020.WEB-DL.1080p.HDREZKA.STUDIO.mkv

Формат : Matroska

Версия формата : Version 4

Размер файла : 7,07 Гбайт

Продолжительность : 1 ч. 31 м.

Общий поток : 11,0 Мбит/сек

Дата кодирования : UTC 2020-07-15 06:24:16

Программа кодирования : mkvmerge v48.0.0 ('Fortress Around Your Heart') 64-bit

Библиотека кодирования : libebml v1.4.0 + libmatroska v1.6.0

Attachments : poster.jpg



Видео

Идентификатор : 1

Формат : AVC

Формат/Информация : Advanced Video Codec

Профиль формата : [email protected]

Настройки формата : CABAC / 5 Ref Frames

Параметр CABAC формата : Да

Параметр RefFrames формата : 5 кадров

Идентификатор кодека : V_MPEG4/ISO/AVC

Продолжительность : 1 ч. 31 м.

Битрейт : 10,1 Мбит/сек

Ширина : 1 920 пикселей

Высота : 802 пикселя

Соотношение сторон : 2,40:1

Режим частоты кадров : Постоянный

Частота кадров : 23,976 (24000/1001) кадра/сек

Цветовое пространство : YUV

Субдискретизация насыщенности : 4:2:0

Битовая глубина : 8 бит

Тип развёртки : Прогрессивная

Бит/(Пиксели*Кадры) : 0.273

Размер потока : 6,45 Гбайт (91%)

Default : Да

Forced : Нет

Цветовой диапазон : Limited

Основные цвета : BT.709

Характеристики трансфера : BT.709

Коэффициенты матрицы : BT.709



Аудио #1

Идентификатор : 2

Формат : AC-3

Формат/Информация : Audio Coding 3

Коммерческое название : Dolby Digital

Идентификатор кодека : A_AC3

Продолжительность : 1 ч. 31 м.

Вид битрейта : Постоянный

Битрейт : 192 Кбит/сек

Каналы : 2 канала

Channel layout : L R

Частота : 48,0 КГц

Частота кадров : 31,250 кадров/сек (1536 SPF)

Метод сжатия : С потерями

Размер потока : 126 Мбайт (2%)

Язык : Russian

Default : Да

Forced : Нет



Аудио #2

Идентификатор : 3

Формат : E-AC-3 JOC

Формат/Информация : Enhanced AC-3 with Joint Object Coding

Коммерческое название : Dolby Digital Plus with Dolby Atmos

Идентификатор кодека : A_EAC3

Продолжительность : 1 ч. 31 м.

Вид битрейта : Постоянный

Битрейт : 768 Кбит/сек

Каналы : 6 каналов

Channel layout : L R C LFE Ls Rs

Частота : 48,0 КГц

Частота кадров : 31,250 кадров/сек (1536 SPF)

Метод сжатия : С потерями

Размер потока : 504 Мбайт (7%)

Заголовок : English

Язык : English

Default : Нет

Forced : Нет

Complexity index : 16

Number of dynamic objects : 15

Bed channel count : 1 канал

Bed channel configuration : LFE



Текст #1

Идентификатор : 4

Формат : UTF-8

Идентификатор кодека : S_TEXT/UTF8

Идентификатор кодека/Информация : UTF-8 Plain Text

Продолжительность : 1 ч. 29 м.

Битрейт : 4 бит/сек

Count of elements : 59

Размер потока : 3,20 Кбайт (0%)

Заголовок : Forsed

Язык : Russian

Default : Да

Forced : Нет



Текст #2

Идентификатор : 5

Формат : UTF-8

Идентификатор кодека : S_TEXT/UTF8

Идентификатор кодека/Информация : UTF-8 Plain Text

Продолжительность : 1 ч. 30 м.

Битрейт : 94 бит/сек

Count of elements : 1095

Размер потока : 62,9 Кбайт (0%)

Заголовок : Russian

Язык : Russian

Default : Нет

Forced : Нет



Текст #3

Идентификатор : 6

Формат : UTF-8

Идентификатор кодека : S_TEXT/UTF8

Идентификатор кодека/Информация : UTF-8 Plain Text

Продолжительность : 1 ч. 30 м.

Битрейт : 89 бит/сек

Count of elements : 1095

Размер потока : 59,6 Кбайт (0%)

Заголовок : Ukrainian

Язык : Ukrainian

Default : Нет

Forced : Нет



Текст #4

Идентификатор : 7

Формат : UTF-8

Идентификатор кодека : S_TEXT/UTF8

Идентификатор кодека/Информация : UTF-8 Plain Text

Продолжительность : 1 ч. 20 м.

Битрейт : 66 бит/сек

Count of elements : 1033

Размер потока : 38,8 Кбайт (0%)

Заголовок : English

Язык : English

Default : Нет

Forced : Нет



Текст #5

Идентификатор : 8

Формат : UTF-8

Идентификатор кодека : S_TEXT/UTF8

Идентификатор кодека/Информация : UTF-8 Plain Text

Продолжительность : 1 ч. 20 м.

Битрейт : 72 бит/сек

Count of elements : 1105

Размер потока : 42,3 Кбайт (0%)

Заголовок : English [SDH]

Язык : English

Default : Нет

Forced : Нет



Текст #6

Идентификатор : 9

Формат : UTF-8

Идентификатор кодека : S_TEXT/UTF8

Идентификатор кодека/Информация : UTF-8 Plain Text

Продолжительность : 1 ч. 30 м.

Битрейт : 110 бит/сек

Count of elements : 1092

Размер потока : 73,9 Кбайт (0%)

Заголовок : Arabic

Язык : Arabic

Default : Нет

Forced : Нет



Текст #7

Идентификатор : 10

Формат : UTF-8

Идентификатор кодека : S_TEXT/UTF8

Идентификатор кодека/Информация : UTF-8 Plain Text

Продолжительность : 1 ч. 30 м.

Битрейт : 83 бит/сек

Count of elements : 1001

Размер потока : 55,7 Кбайт (0%)

Заголовок : Bulgarian

Язык : Bulgarian

Default : Нет

Forced : Нет



Текст #8

Идентификатор : 11

Формат : UTF-8

Идентификатор кодека : S_TEXT/UTF8

Идентификатор кодека/Информация : UTF-8 Plain Text

Продолжительность : 1 ч. 30 м.

Битрейт : 55 бит/сек

Count of elements : 1079

Размер потока : 37,2 Кбайт (0%)

Заголовок : Czech

Язык : Czech

Default : Нет

Forced : Нет



Текст #9

Идентификатор : 12

Формат : UTF-8

Идентификатор кодека : S_TEXT/UTF8

Идентификатор кодека/Информация : UTF-8 Plain Text

Продолжительность : 1 ч. 30 м.

Битрейт : 51 бит/сек

Count of elements : 1078

Размер потока : 34,1 Кбайт (0%)

Заголовок : Danish

Язык : Danish

Default : Нет

Forced : Нет



Текст #10

Идентификатор : 13

Формат : UTF-8

Идентификатор кодека : S_TEXT/UTF8

Идентификатор кодека/Информация : UTF-8 Plain Text

Продолжительность : 1 ч. 30 м.

Битрейт : 45 бит/сек

Count of elements : 927

Размер потока : 30,0 Кбайт (0%)

Заголовок : Dutch

Язык : Dutch

Default : Нет

Forced : Нет



Текст #11

Идентификатор : 14

Формат : UTF-8

Идентификатор кодека : S_TEXT/UTF8

Идентификатор кодека/Информация : UTF-8 Plain Text

Продолжительность : 1 ч. 30 м.

Битрейт : 57 бит/сек

Count of elements : 1090

Размер потока : 38,4 Кбайт (0%)

Заголовок : Estonian

Язык : Estonian

Default : Нет

Forced : Нет



Текст #12

Идентификатор : 15

Формат : UTF-8

Идентификатор кодека : S_TEXT/UTF8

Идентификатор кодека/Информация : UTF-8 Plain Text

Продолжительность : 1 ч. 30 м.

Битрейт : 52 бит/сек

Count of elements : 1088

Размер потока : 34,8 Кбайт (0%)

Заголовок : Finnish

Язык : Finnish

Default : Нет

Forced : Нет



Текст #13

Идентификатор : 16

Формат : UTF-8

Идентификатор кодека : S_TEXT/UTF8

Идентификатор кодека/Информация : UTF-8 Plain Text

Продолжительность : 1 ч. 30 м.

Битрейт : 51 бит/сек

Count of elements : 992

Размер потока : 34,1 Кбайт (0%)

Заголовок : French

Язык : French

Default : Нет

Forced : Нет



Текст #14

Идентификатор : 17

Формат : UTF-8

Идентификатор кодека : S_TEXT/UTF8

Идентификатор кодека/Информация : UTF-8 Plain Text

Продолжительность : 1 ч. 30 м.

Битрейт : 51 бит/сек

Count of elements : 990

Размер потока : 34,3 Кбайт (0%)

Заголовок : Canadian French

Язык : French

Default : Нет

Forced : Нет



Текст #15

Идентификатор : 18

Формат : UTF-8

Идентификатор кодека : S_TEXT/UTF8

Идентификатор кодека/Информация : UTF-8 Plain Text

Продолжительность : 1 ч. 30 м.

Битрейт : 63 бит/сек

Count of elements : 985

Размер потока : 42,3 Кбайт (0%)

Заголовок : German

Язык : German

Default : Нет

Forced : Нет



Текст #16

Идентификатор : 19

Формат : UTF-8

Идентификатор кодека : S_TEXT/UTF8

Идентификатор кодека/Информация : UTF-8 Plain Text

Продолжительность : 1 ч. 30 м.

Битрейт : 104 бит/сек

Count of elements : 1090

Размер потока : 69,5 Кбайт (0%)

Заголовок : Greek

Язык : Greek

Default : Нет

Forced : Нет



Текст #17

Идентификатор : 20

Формат : UTF-8

Идентификатор кодека : S_TEXT/UTF8

Идентификатор кодека/Информация : UTF-8 Plain Text

Продолжительность : 1 ч. 30 м.

Битрейт : 93 бит/сек

Count of elements : 1092

Размер потока : 62,0 Кбайт (0%)

Заголовок : Hebrew

Язык : Hebrew

Default : Нет

Forced : Нет



Текст #18

Идентификатор : 21

Формат : UTF-8

Идентификатор кодека : S_TEXT/UTF8

Идентификатор кодека/Информация : UTF-8 Plain Text

Продолжительность : 1 ч. 30 м.

Битрейт : 149 бит/сек

Count of elements : 1095

Размер потока : 99,6 Кбайт (0%)

Заголовок : Hindi

Язык : Hindi

Default : Нет

Forced : Нет



Текст #19

Идентификатор : 22

Формат : UTF-8

Идентификатор кодека : S_TEXT/UTF8

Идентификатор кодека/Информация : UTF-8 Plain Text

Продолжительность : 1 ч. 30 м.

Битрейт : 58 бит/сек

Count of elements : 1067

Размер потока : 39,3 Кбайт (0%)

Заголовок : Hungarian

Язык : Hungarian

Default : Нет

Forced : Нет



Текст #20

Идентификатор : 23

Формат : UTF-8

Идентификатор кодека : S_TEXT/UTF8

Идентификатор кодека/Информация : UTF-8 Plain Text

Продолжительность : 1 ч. 30 м.

Битрейт : 58 бит/сек

Count of elements : 1090

Размер потока : 39,1 Кбайт (0%)

Заголовок : Indonesian

Язык : Indonesian

Default : Нет

Forced : Нет



Текст #21

Идентификатор : 24

Формат : UTF-8

Идентификатор кодека : S_TEXT/UTF8

Идентификатор кодека/Информация : UTF-8 Plain Text

Продолжительность : 1 ч. 30 м.

Битрейт : 56 бит/сек

Count of elements : 1093

Размер потока : 37,7 Кбайт (0%)

Заголовок : Italian

Язык : Italian

Default : Нет

Forced : Нет



Текст #22

Идентификатор : 25

Формат : UTF-8

Идентификатор кодека : S_TEXT/UTF8

Идентификатор кодека/Информация : UTF-8 Plain Text

Продолжительность : 1 ч. 31 м.

Битрейт : 44 бит/сек

Count of elements : 1003

Размер потока : 29,8 Кбайт (0%)

Заголовок : Japanese

Язык : Japanese

Default : Нет

Forced : Нет



Текст #23

Идентификатор : 26

Формат : UTF-8

Идентификатор кодека : S_TEXT/UTF8

Идентификатор кодека/Информация : UTF-8 Plain Text

Продолжительность : 1 ч. 30 м.

Битрейт : 69 бит/сек

Count of elements : 1090

Размер потока : 46,0 Кбайт (0%)

Заголовок : Lithuanian

Язык : Lithuanian

Default : Нет

Forced : Нет



Текст #24

Идентификатор : 27

Формат : UTF-8

Идентификатор кодека : S_TEXT/UTF8

Идентификатор кодека/Информация : UTF-8 Plain Text

Продолжительность : 1 ч. 30 м.

Битрейт : 62 бит/сек

Count of elements : 1090

Размер потока : 41,6 Кбайт (0%)

Заголовок : Latvian

Язык : Latvian

Default : Нет

Forced : Нет



Текст #25

Идентификатор : 28

Формат : UTF-8

Идентификатор кодека : S_TEXT/UTF8

Идентификатор кодека/Информация : UTF-8 Plain Text

Продолжительность : 1 ч. 30 м.

Битрейт : 63 бит/сек

Count of elements : 1090

Размер потока : 42,2 Кбайт (0%)

Заголовок : Malay

Язык : Malay

Default : Нет

Forced : Нет



Текст #26

Идентификатор : 29

Формат : UTF-8

Идентификатор кодека : S_TEXT/UTF8

Идентификатор кодека/Информация : UTF-8 Plain Text

Продолжительность : 1 ч. 30 м.

Битрейт : 53 бит/сек

Count of elements : 1092

Размер потока : 35,9 Кбайт (0%)

Заголовок : Simplified

Язык : Chinese

Default : Нет

Forced : Нет



Текст #27

Идентификатор : 30

Формат : UTF-8

Идентификатор кодека : S_TEXT/UTF8

Идентификатор кодека/Информация : UTF-8 Plain Text

Продолжительность : 1 ч. 30 м.

Битрейт : 56 бит/сек

Count of elements : 1095

Размер потока : 37,8 Кбайт (0%)

Заголовок : Traditional

Язык : Chinese

Default : Нет

Forced : Нет



Текст #28

Идентификатор : 31

Формат : UTF-8

Идентификатор кодека : S_TEXT/UTF8

Идентификатор кодека/Информация : UTF-8 Plain Text

Продолжительность : 1 ч. 30 м.

Битрейт : 52 бит/сек

Count of elements : 1094

Размер потока : 35,0 Кбайт (0%)

Заголовок : Norwegian

Язык : Norwegian

Default : Нет

Forced : Нет



Текст #29

Идентификатор : 32

Формат : UTF-8

Идентификатор кодека : S_TEXT/UTF8

Идентификатор кодека/Информация : UTF-8 Plain Text

Продолжительность : 1 ч. 30 м.

Битрейт : 54 бит/сек

Count of elements : 1091

Размер потока : 36,6 Кбайт (0%)

Заголовок : Polish

Язык : Polish

Default : Нет

Forced : Нет



Текст #30

Идентификатор : 33

Формат : UTF-8

Идентификатор кодека : S_TEXT/UTF8

Идентификатор кодека/Информация : UTF-8 Plain Text

Продолжительность : 1 ч. 30 м.

Битрейт : 59 бит/сек

Count of elements : 1087

Размер потока : 39,5 Кбайт (0%)

Заголовок : Portuguese

Язык : Portuguese

Default : Нет

Forced : Нет



Текст #31

Идентификатор : 34

Формат : UTF-8

Идентификатор кодека : S_TEXT/UTF8

Идентификатор кодека/Информация : UTF-8 Plain Text

Продолжительность : 1 ч. 30 м.

Битрейт : 58 бит/сек

Count of elements : 1094

Размер потока : 39,1 Кбайт (0%)

Заголовок : Brazilian Portuguese

Язык : Portuguese

Default : Нет

Forced : Нет



Текст #32

Идентификатор : 35

Формат : UTF-8

Идентификатор кодека : S_TEXT/UTF8

Идентификатор кодека/Информация : UTF-8 Plain Text

Продолжительность : 1 ч. 30 м.

Битрейт : 57 бит/сек

Count of elements : 1095

Размер потока : 38,5 Кбайт (0%)

Заголовок : Cantonese

Язык : Chinese

Default : Нет

Forced : Нет



Текст #33

Идентификатор : 36

Формат : UTF-8

Идентификатор кодека : S_TEXT/UTF8

Идентификатор кодека/Информация : UTF-8 Plain Text

Продолжительность : 1 ч. 30 м.

Битрейт : 52 бит/сек

Count of elements : 1090

Размер потока : 34,7 Кбайт (0%)

Заголовок : Slovak

Язык : Slovak

Default : Нет

Forced : Нет



Текст #34

Идентификатор : 37

Формат : UTF-8

Идентификатор кодека : S_TEXT/UTF8

Идентификатор кодека/Информация : UTF-8 Plain Text

Продолжительность : 1 ч. 30 м.

Битрейт : 45 бит/сек

Count of elements : 1070

Размер потока : 30,4 Кбайт (0%)

Заголовок : Slovenian

Язык : Slovenian

Default : Нет

Forced : Нет



Текст #35

Идентификатор : 38

Формат : UTF-8

Идентификатор кодека : S_TEXT/UTF8

Идентификатор кодека/Информация : UTF-8 Plain Text

Продолжительность : 1 ч. 30 м.

Битрейт : 64 бит/сек

Count of elements : 1103

Размер потока : 42,9 Кбайт (0%)

Заголовок : Spanish

Язык : Spanish

Default : Нет

Forced : Нет



Текст #36

Идентификатор : 39

Формат : UTF-8

Идентификатор кодека : S_TEXT/UTF8

Идентификатор кодека/Информация : UTF-8 Plain Text

Продолжительность : 1 ч. 30 м.

Битрейт : 67 бит/сек

Count of elements : 1103

Размер потока : 44,7 Кбайт (0%)

Заголовок : Castilian

Язык : Spanish

Default : Нет

Forced : Нет



Текст #37

Идентификатор : 40

Формат : UTF-8

Идентификатор кодека : S_TEXT/UTF8

Идентификатор кодека/Информация : UTF-8 Plain Text

Продолжительность : 1 ч. 30 м.

Битрейт : 58 бит/сек

Count of elements : 1089

Размер потока : 39,1 Кбайт (0%)

Заголовок : Swedish

Язык : Swedish

Default : Нет

Forced : Нет



Текст #38

Идентификатор : 41

Формат : UTF-8

Идентификатор кодека : S_TEXT/UTF8

Идентификатор кодека/Информация : UTF-8 Plain Text

Продолжительность : 1 ч. 30 м.

Битрейт : 172 бит/сек

Count of elements : 1093

Размер потока : 115 Кбайт (0%)

Заголовок : Tamil

Язык : Tamil

Default : Нет

Forced : Нет



Текст #39

Идентификатор : 42

Формат : UTF-8

Идентификатор кодека : S_TEXT/UTF8

Идентификатор кодека/Информация : UTF-8 Plain Text

Продолжительность : 1 ч. 30 м.

Битрейт : 192 бит/сек

Count of elements : 1092

Размер потока : 128 Кбайт (0%)

Заголовок : Telugu

Язык : Telugu

Default : Нет

Forced : Нет



Текст #40

Идентификатор : 43

Формат : UTF-8

Идентификатор кодека : S_TEXT/UTF8

Идентификатор кодека/Информация : UTF-8 Plain Text

Продолжительность : 1 ч. 30 м.

Битрейт : 154 бит/сек

Count of elements : 1092

Размер потока : 103 Кбайт (0%)

Заголовок : Thai

Язык : Thai

Default : Нет

Forced : Нет



Текст #41

Идентификатор : 44

Формат : UTF-8

Идентификатор кодека : S_TEXT/UTF8

Идентификатор кодека/Информация : UTF-8 Plain Text

Продолжительность : 1 ч. 30 м.

Битрейт : 80 бит/сек

Count of elements : 1093

Размер потока : 53,9 Кбайт (0%)

Заголовок : Vietnamese

Язык : Vietnamese

Default : Нет

Forced : Нет

Скриншоты

Discussion

Comments 0

Post Your Comment

Files in this torrent

FILENAMESIZE
Greyhound.2020.WEB-DL.1080p.HDREZKA.STUDIO.mkv7.1 GB

Alternative Torrents for 'Greyhound HDREZKA STUDIO'.

TORRENT NAMEADDEDSIZESEEDSPEERSHEALTH
7/15/20207.1 GB00