Fantasy Island (2020) Unrated 1080p BluRay X264 Dual Audio [Hindi DD 5.1 - English DD 5.1] - ESUBS ~ Ranvijay

Torrent Details

Fantasy Island (2020) Unrated 1080p BluRay x264 Dual Audio [Hindi DD 5.1 - English DD 5.1] - ESUBS ~ Ranvijay
Fantasy Island (2020) Unrated 1080p BluRay x264 Dual Audio [Hindi DD 5.1 - English DD 5.1] - ESUBS ~ Ranvijay

NAME
Fantasy Island (2020) Unrated 1080p BluRay x264 Dual Audio [Hindi DD 5.1 - English DD 5.1] - ESUBS ~ Ranvijay.torrent
CATEGORY
Movies
INFOHASH
ec2e4661eadb8b7321ed68be7bdcbbfbcfed0d03
SIZE
4 GB in 1 file
ADDED
Uploaded on 15-07-2020 by our crawler pet called "Spidey".
SWARM
0 seeders & 0 peers
RATING
No votes yet.

Please login to vote for this torrent.


Description

Fantasy Island (2020) Unrated 1080p BluRay x264 Dual Audio [Hindi DD5.1 - English DD5.1] - ESUBS ~ Ranvijay-DUS-ICTV

Thanks To Hammer For Audio And Peter Parker For Sync Audio



General
Format : Matroska
Format version : Version 4
File size : 4.02 GiB
Duration : 1 h 49 min
Overall bit rate : 5 261 kb/s
Movie name : Fantasy Island (2020) Unrated 1080p BluRay x264 Dual Audio [Hindi DD5.1 - English DD5.1] - ESUBS ~ Ranvijay

Video
ID : 1
Format : AVC
Format/Info : Advanced Video Codec
Format profile : [email protected]
Format settings : CABAC / 5 Ref Frames
Format settings, CABAC : Yes
Format settings, Reference frames : 5 frames
Codec ID : V_MPEG4/ISO/AVC
Duration : 1 h 49 min
Bit rate : 4 179 kb/s
Width : 1 920 pixels
Height : 800 pixels
Display aspect ratio : 2.40:1
Frame rate mode : Constant
Frame rate : 23.976 (24000/1001) FPS
Color space : YUV
Chroma subsampling : 4:2:0
Bit depth : 8 bits
Scan type : Progressive
Bits/(Pixel*Frame) : 0.113
Stream size : 3.19 GiB (79%)
Title : ~Ranvijay~
Default : Yes
Forced : No

Audio #1
ID : 2
Format : AC-3
Format/Info : Audio Coding 3
Commercial name : Dolby Digital
Codec ID : A_AC3
Duration : 1 h 49 min
Bit rate mode : Constant
Bit rate : 640 kb/s
Channel(s) : 6 channels
Channel layout : L R C LFE Ls Rs
Sampling rate : 48.0 kHz
Frame rate : 31.250 FPS (1536 SPF)
Compression mode : Lossy
Stream size : 501 MiB (12%)
Title : ~Ranvijay~
Language : Hindi
Service kind : Complete Main
Default : Yes
Forced : Yes

Audio #2
ID : 3
Format : AC-3
Format/Info : Audio Coding 3
Commercial name : Dolby Digital
Codec ID : A_AC3
Duration : 1 h 49 min
Bit rate mode : Constant
Bit rate : 384 kb/s
Channel(s) : 6 channels
Channel layout : L R C LFE Ls Rs
Sampling rate : 48.0 kHz
Frame rate : 31.250 FPS (1536 SPF)
Compression mode : Lossy
Stream size : 300 MiB (7%)
Title : ~Ranvijay~
Language : English
Service kind : Complete Main
Default : No
Forced : No

Text #1
ID : 4
Format : PGS
Muxing mode : zlib
Codec ID : S_HDMV/PGS
Codec ID/Info : Picture based subtitle format used on BDs/HD-DVDs
Duration : 1 h 47 min
Bit rate : 42.4 kb/s
Count of elements : 3460
Stream size : 32.5 MiB (1%)
Title : ~Ranvijay~
Language : English
Default : Yes
Forced : Yes

Text #2
ID : 5
Format : PGS
Muxing mode : zlib
Codec ID : S_HDMV/PGS
Codec ID/Info : Picture based subtitle format used on BDs/HD-DVDs
Duration : 1 h 42 min
Bit rate : 37.7 kb/s
Count of elements : 2800
Stream size : 27.7 MiB (1%)
Title : ~Ranvijay~
Language : English
Default : No
Forced : No

Text #3
ID : 6
Format : PGS
Muxing mode : zlib
Codec ID : S_HDMV/PGS
Codec ID/Info : Picture based subtitle format used on BDs/HD-DVDs
Duration : 1 h 42 min
Bit rate : 37.7 kb/s
Count of elements : 2800
Stream size : 27.7 MiB (1%)
Title : ~Ranvijay~
Language : English
Default : No
Forced : No

Menu
00:00:00.000 : :Chapter 01
00:08:46.985 : :Chapter 02
00:13:44.699 : :Chapter 03
00:18:47.460 : :Chapter 04
00:25:42.583 : :Chapter 05
00:32:38.665 : :Chapter 06
00:39:34.789 : :Chapter 07
00:45:24.513 : :Chapter 08
00:51:01.934 : :Chapter 09
00:55:38.126 : :Chapter 10
01:01:33.940 : :Chapter 11
01:09:39.884 : :Chapter 12
01:15:21.809 : :Chapter 13
01:23:02.811 : :Chapter 14
01:29:11.805 : :Chapter 15
01:40:03.831 : :Chapter 16
01:44:10.786 : :Chapter 17



















Discussion

Comments 0

Post Your Comment

Files in this torrent

FILENAMESIZE
Fantasy Island (2020) Unrated 1080p BluRay x264 Dual Audio [Hindi DD5.1 - English DD5.1] - ESUBS ~ Ranvijay.mkv4 GB

Alternative Torrents for 'Fantasy Island Unrated BluRay Dual Audio Hindi DD English DD . ESUBS Ranvijay'.

There are no alternative torrents found.