Greyhound 2020 ATVP WEB-DL 1080p

Torrent Details

Greyhound 2020 ATVP WEB-DL 1080p
Greyhound 2020 ATVP WEB-DL 1080p

NAME
Greyhound 2020 ATVP WEB-DL 1080p.torrent
CATEGORY
Movies
INFOHASH
48d94ce9440de31d0fb27312b3f7f0a0a275adda
SIZE
7.1 GB in 1 file
ADDED
Uploaded on 15-07-2020 by our crawler pet called "Spidey".
SWARM
0 seeders & 0 peers
RATING
No votes yet.

Please login to vote for this torrent.


Description

Информация о фильме

Название: Грейхаунд

Оригинальное название: Greyhound

Год выхода: 2020

Жанр: Военный, боевик, история, биография

Режиссер: Аарон Шнайдер

В ролях: Том Хэнкс, Стивен Грэм, Элизабет Шу, Майкл Бенц, Роб Морган, Дэвид Мальдонадо, Джими Стэнтон, Мэтт Хелм, Том Бриттни, Мануэль Рульфо



О фильме:

В 1942 году офицера морского флота Эрнста Краузе назначают капитаном эсминца "Грейхаунд". Приняв командование, ему необходимо провести конвой из кораблей через воды Северной Атлантики, переполненные немецкими подводными лодками. Но чтобы уйти от преследования врага и сохранить экипаж, ему нужно проявить умение и небывалые тактические навыки.







Страна: Китай, Канада, США

Студия: Bron Studios, Columbia Pictures Corporation, Creative Artists Agency (CAA), Creative Wealth Media Finance, Playtone

Продолжительность: 01:31:42

Перевод: Профессиональный многоголосый | HDRezka Studio



Файл

Кодек: AVC

Качество: WEB-DL 1080p | ATVP

Видео: MPEG-4 AVC, 10.1 Mбит/с, 1920x802, 23.976 кадр/с

Аудио #1: Русский (АС3, 6 ch, 448 Кбит/с, 48.0 KHz) Профессиональный (многоголосый, закадровый) HDRezka Studio

Аудио #2: Английский (АС3, 6 ch, 640 Кбит/с, 48.0 KHz)

Субтитры: Русские (Forced, Full), украинские, английские, испанские, французские, немецкие, итальянские, португальские

► Без Рекламы!

Трейлер

MediaInfo Источник: Greyhound.2020.720p.ATVP.WEB-DL.DDP5.1.Atmos.x264-MZABI

General

Unique ID : 211614404324781202423825272223702389945 (0x9F3373A8DAF095729C4A5D95164314B9)

Complete name : Greyhound.2020Greyhound.2020.ATVP.WEB-DL.1080p.mkv

Format : Matroska

Format version : Version 4

File size : 7.15 GiB

Duration : 1 h 31 min

Overall bit rate : 11.2 Mb/s

Encoded date : UTC 2020-07-15 11:36:22

Writing application : mkvmerge v7.1.0 ('Good Love') 64bit built on Jul 27 2014 13:06:55

Writing library : libebml v1.3.0 + libmatroska v1.4.1



Video

ID : 1

Format : AVC

Format/Info : Advanced Video Codec

Format profile : [email protected]

Format settings : CABAC / 5 Ref Frames

Format settings, CABAC : Yes

Format settings, Reference fra : 5 frames

Codec ID : V_MPEG4/ISO/AVC

Duration : 1 h 31 min

Bit rate : 10.1 Mb/s

Width : 1 920 pixels

Height : 802 pixels

Display aspect ratio : 2.40:1

Frame rate mode : Constant

Frame rate : 23.976 (24000/1001) FPS

Color space : YUV

Chroma subsampling : 4:2:0

Bit depth : 8 bits

Scan type : Progressive

Bits/(Pixel*Frame) : 0.273

Stream size : 6.45 GiB (90%)

Language : English

Default : Yes

Forced : No

Color range : Limited

Color primaries : BT.709

Transfer characteristics : BT.709

Matrix coefficients : BT.709



Audio #1

ID : 2

Format : AC-3

Format/Info : Audio Coding 3

Commercial name : Dolby Digital

Codec ID : A_AC3

Duration : 1 h 31 min

Bit rate mode : Constant

Bit rate : 448 kb/s

Channel(s) : 6 channels

Channel layout : L R C LFE Ls Rs

Sampling rate : 48.0 kHz

Frame rate : 31.250 FPS (1536 SPF)

Compression mode : Lossy

Stream size : 294 MiB (4%)

Title : MVO | HDRezka Studio 5.1

Language : Russian

Service kind : Complete Main

Default : Yes

Forced : No



Audio #2

ID : 3

Format : AC-3

Format/Info : Audio Coding 3

Commercial name : Dolby Digital

Codec ID : A_AC3

Duration : 1 h 31 min

Bit rate mode : Constant

Bit rate : 640 kb/s

Channel(s) : 6 channels

Channel layout : L R C LFE Ls Rs

Sampling rate : 48.0 kHz

Frame rate : 31.250 FPS (1536 SPF)

Compression mode : Lossy

Stream size : 420 MiB (6%)

Language : English

Service kind : Complete Main

Default : No

Forced : No



Text #1

ID : 4

Format : UTF-8

Codec ID : S_TEXT/UTF8

Codec ID/Info : UTF-8 Plain Text

Duration : 1 h 29 min

Bit rate : 4 b/s

Count of elements : 59

Stream size : 3.20 KiB (0%)

Title : Forsed

Language : Russian

Default : Yes

Forced : No



Text #2

ID : 5

Format : UTF-8

Codec ID : S_TEXT/UTF8

Codec ID/Info : UTF-8 Plain Text

Duration : 1 h 30 min

Bit rate : 94 b/s

Count of elements : 1095

Stream size : 62.9 KiB (0%)

Title : Russian

Language : Russian

Default : No

Forced : No



Text #3

ID : 6

Format : UTF-8

Codec ID : S_TEXT/UTF8

Codec ID/Info : UTF-8 Plain Text

Duration : 1 h 30 min

Bit rate : 89 b/s

Count of elements : 1095

Stream size : 59.6 KiB (0%)

Title : Ukrainian

Language : Ukrainian

Default : No

Forced : No



Text #4

ID : 7

Format : UTF-8

Codec ID : S_TEXT/UTF8

Codec ID/Info : UTF-8 Plain Text

Duration : 1 h 20 min

Bit rate : 66 b/s

Count of elements : 1033

Stream size : 38.8 KiB (0%)

Title : English

Language : English

Default : No

Forced : No



Text #5

ID : 8

Format : UTF-8

Codec ID : S_TEXT/UTF8

Codec ID/Info : UTF-8 Plain Text

Duration : 1 h 20 min

Bit rate : 72 b/s

Count of elements : 1105

Stream size : 42.3 KiB (0%)

Title : English [SDH]

Language : English

Default : No

Forced : No



Text #6

ID : 9

Format : UTF-8

Codec ID : S_TEXT/UTF8

Codec ID/Info : UTF-8 Plain Text

Duration : 1 h 30 min

Bit rate : 51 b/s

Count of elements : 992

Stream size : 34.1 KiB (0%)

Title : French

Language : French

Default : No

Forced : No



Text #7

ID : 10

Format : UTF-8

Codec ID : S_TEXT/UTF8

Codec ID/Info : UTF-8 Plain Text

Duration : 1 h 30 min

Bit rate : 63 b/s

Count of elements : 985

Stream size : 42.3 KiB (0%)

Title : German

Language : German

Default : No

Forced : No



Text #8

ID : 11

Format : UTF-8

Codec ID : S_TEXT/UTF8

Codec ID/Info : UTF-8 Plain Text

Duration : 1 h 30 min

Bit rate : 64 b/s

Count of elements : 1103

Stream size : 42.9 KiB (0%)

Title : Spanish

Language : Spanish

Default : No

Forced : No



Text #9

ID : 12

Format : UTF-8

Codec ID : S_TEXT/UTF8

Codec ID/Info : UTF-8 Plain Text

Duration : 1 h 30 min

Bit rate : 56 b/s

Count of elements : 1093

Stream size : 37.7 KiB (0%)

Title : Italian

Language : Italian

Default : No

Forced : No



Text #10

ID : 13

Format : UTF-8

Codec ID : S_TEXT/UTF8

Codec ID/Info : UTF-8 Plain Text

Duration : 1 h 30 min

Bit rate : 59 b/s

Count of elements : 1087

Stream size : 39.5 KiB (0%)

Title : Portuguese

Language : Portuguese

Default : No

Forced : No

Скриншоты

Discussion

Comments 0

Post Your Comment

Files in this torrent

FILENAMESIZE
Greyhound.2020.ATVP.WEB-DL.1080p.mkv7.1 GB

Alternative Torrents for 'Greyhound ATVP'.

TORRENT NAMEADDEDSIZESEEDSPEERSHEALTH
8/5/20202.2 GB00
8/5/20201.7 GB00
7/15/20207.1 GB00
7/15/202013.6 GB00
7/12/20206.9 GB00
7/12/20202.5 GB00
7/11/20202.3 GB00
7/11/20206.9 GB00
7/11/20206.9 GB00
7/11/20202.2 GB00
7/10/20202.4 GB00
7/10/20206.9 GB00
7/10/20201.4 GB00
7/10/202013.6 GB00
7/10/20201.7 GB00