Greyhound Il Nemico Invisibile (2020) ITA-ENG Ac3 5.1 WEBRip 1080p H264 [ArMor]

Torrent Details


Greyhound il nemico invisibile (2020) ITA-ENG Ac3 5.1 WEBRip 1080p H264 <span style=color:#fc9c6d>[ArMor]</span>

NAME
Greyhound il nemico invisibile (2020) ITA-ENG Ac3 5.1 WEBRip 1080p H264 [ArMor].torrent
CATEGORY
Movies
INFOHASH
835301f002af8bb9bd132300c4c624a2b6086d62
SIZE
2.7 GB in 4 files
ADDED
Uploaded on 15-07-2020 by our crawler pet called "Spidey".
SWARM
0 seeders & 0 peers
RATING
No votes yet.

Please login to vote for this torrent.


Description

Regista: Aaron Schneider
Genere: Drammatico, Guerra
Anno: 2020
Paese: USA
Distribuzione: Sony Pictures Italia / Warner Bros. Italia


Plot: Greyhound, film diretto da Aaron Schneider, è ambientato nei primi giorni dopo lo scoppio della Seconda guerra mondiale e segue la vera storia del comandante della Marina statunitense, Ernest Krause (Tom Hanks). Dopo anni, finalmente Ernest viene messo a capo di un cacciatorpediniere, la Greyhound, e alla guida di una flotta di 37 navi alleate. Oltre a fronteggiare i temibili U-boat nazisti, i sommergibili della Germania, nelle acque imprevedibili dell'Atlantico del Nord, l'uomo dovrà affrontare anche i suoi demoni e gli scontri interni con il suo equipaggio.

Early in World War II, an inexperienced U.S. Navy captain must lead an Allied convoy being stalked by Nazi U-boat wolfpacks.










General
Unique ID : 233636670814124684456676724904981046403 (0xAFC4C93A199DBD53AFE194A75DAE2483)
Complete name : Greyhound il nemico invisibile (2020) ITA-ENG Ac3 5.1 WEBRip 1080p H264 [ArMor].mkv
Format : Matroska
Format version : Version 4
File size : 2.74 GiB
Duration : 1 h 31 min
Overall bit rate : 4 275 kb/s
Encoded date : UTC 2020-07-14 23:08:41
Writing application : mkvmerge v15.0.0 ('Duel with the Devil') 64-bit
Writing library : libebml v1.3.5 + libmatroska v1.4.5 / Lavf58.29.100

Video
ID : 1
Format : AVC
Format/Info : Advanced Video Codec
Format profile : [email protected]
Format settings : CABAC / 4 Ref Frames
Format settings, CABAC : Yes
Format settings, Reference frames : 4 frames
Codec ID : V_MPEG4/ISO/AVC
Duration : 1 h 31 min
Bit rate : 3 500 kb/s
Width : 1 878 pixels
Height : 802 pixels
Display aspect ratio : 2.35:1
Frame rate mode : Constant
Frame rate : 23.976 (24000/1001) FPS
Color space : YUV
Chroma subsampling : 4:2:0
Bit depth : 8 bits
Scan type : Progressive
Bits/(Pixel*Frame) : 0.097
Stream size : 2.16 GiB (79%)
Writing library : x264 core 157 r2935 545de2f
Encoding settings : cabac=1 / ref=2 / deblock=1:0:0 / analyse=0x1:0x111 / me=hex / subme=6 / psy=1 / psy_rd=1.00:0.00 / mixed_ref=1 / me_range=16 / chroma_me=1 / trellis=1 / 8x8dct=0 / cqm=0 / deadzone=21,11 / fast_pskip=1 / chroma_qp_offset=-2 / threads=18 / lookahead_threads=3 / sliced_threads=0 / nr=0 / decimate=1 / interlaced=0 / bluray_compat=0 / constrained_intra=0 / bframes=3 / b_pyramid=2 / b_adapt=1 / b_bias=0 / direct=1 / weightb=1 / open_gop=0 / weightp=1 / keyint=240 / keyint_min=24 / scenecut=40 / intra_refresh=0 / rc_lookahead=30 / rc=abr / mbtree=1 / bitrate=3500 / ratetol=1.0 / qcomp=0.60 / qpmin=0 / qpmax=69 / qpstep=4 / vbv_maxrate=50000 / vbv_bufsize=62500 / nal_hrd=none / filler=0 / ip_ratio=1.40 / aq=1:1.00
Default : Yes
Forced : No
Color range : Limited
Color primaries : BT.709
Transfer characteristics : BT.709
Matrix coefficients : BT.709

Audio #1
ID : 2
Format : AC-3
Format/Info : Audio Coding 3
Commercial name : Dolby Digital
Codec ID : A_AC3
Duration : 1 h 31 min
Bit rate mode : Constant
Bit rate : 448 kb/s
Channel(s) : 6 channels
Channel layout : L R C LFE Ls Rs
Sampling rate : 48.0 kHz
Frame rate : 31.250 FPS (1536 SPF)
Compression mode : Lossy
Stream size : 294 MiB (10%)
Title : WEBDL EAC3
Language : Italian
Service kind : Complete Main
Default : Yes
Forced : No

Audio #2
ID : 3
Format : AC-3
Format/Info : Audio Coding 3
Commercial name : Dolby Digital
Codec ID : A_AC3
Duration : 1 h 31 min
Bit rate mode : Constant
Bit rate : 448 kb/s
Channel(s) : 6 channels
Channel layout : L R C LFE Ls Rs
Sampling rate : 48.0 kHz
Frame rate : 31.250 FPS (1536 SPF)
Compression mode : Lossy
Stream size : 294 MiB (10%)
Title : EAC3
Language : English
Service kind : Complete Main
Default : No
Forced : No

Discussion

Comments 0

Post Your Comment

Files in this torrent

FILENAMESIZE
Greyhound il nemico invisibile (2020) ITA-ENG Ac3 5.1 WEBRip 1080p H264 [ArMor].mkv2.7 GB
Greyhound.Il.nemico.invisibile.2020.ITA-ENG.WEBDL.1080p_ita.srt80.4 KB
Greyhound.Il.nemico.invisibile.2020.ITA-ENG.WEBDL.1080p_ita_forced.srt4.2 KB
greyhound.jpg117.1 KB

Alternative Torrents for 'Greyhound il nemico invisibile ENG'.

TORRENT NAMEADDEDSIZESEEDSPEERSHEALTH
7/19/20207.4 GB00
7/15/20202.7 GB00