Greyhound 2020 WEB-DL 2160p H 265 HDR

Torrent Details

Greyhound 2020 WEB-DL 2160p H 265 HDR
Greyhound 2020 WEB-DL 2160p H 265 HDR

NAME
Greyhound 2020 WEB-DL 2160p H 265 HDR.torrent
CATEGORY
Movies
INFOHASH
104b141e07e945ee48253b6e66196d9e67289eeb
SIZE
16.5 GB in 1 file
ADDED
Uploaded on 15-07-2020 by our crawler pet called "Spidey".
SWARM
0 seeders & 0 peers
RATING
No votes yet.

Please login to vote for this torrent.


Description

Информация о фильме

Название: Грейхаунд

Оригинальное название: Greyhound

Год выхода: 2020

Жанр: Военный, боевик, история, биография





Режиссер: Аарон Шнайдер





В ролях: Том Хэнкс, Стивен Грэм, Элизабет Шу, Майкл Бенц, Роб Морган, Дэвид Мальдонадо, Джими Стэнтон, Matt Helm, Том Бриттни, Мануэль Рульфо





О фильме:

Февраль 1942 года, Северная Атлантика. Морской конвой с войсками и грузами для союзников под патрулированием ВВС США направляется в порт Ливерпуля. Войдя в недосягаемый для авиации сектор, известный как «чёрная яма», судна подвергаются нападению группы немецких подлодок. Капитану головного эсминца «Грейхаунд» Эрнсту Краузе, до этого не принимавшему участия в военных действиях, приходится руководить обороной и отбиваться от так называемой «волчьей стаи».











Страна: США, Китай, Канада

Продолжительность: 01:31:42

Перевод: Профессиональный (многоголосый, закадровый), любительский (многоголосый, закадровый)





Файл

Кодек: H.265

Качество: WEB-DL-HEVC 2160p

Видео: MPEG-H HEVC, HDR, 3840x1604 (2.40:1), 23.976 fps, 23.9 Mb/s

Аудио 1: AC3, 48 Гц, 448 kb/s, 6 ch | RUS (HDRezka Studio)

Аудио 2: AC3, 48 Гц, 448 kb/s, 6 ch | RUS (Mallorn)

Аудио 3: AC3, 48 Гц, 192 kb/s, 2 ch | RUS (HamsterStudio)

Аудио 4: E-AC3, 48.0 kHz, 6 ch, 768 kb/s | ENG

Субтитры: Русские (форс., полные), украинские (полные), английские (полные, SDH)



Сэмпл



Рекламы нет



MIGeneral

Unique ID : 211304795124187727887046583518251465873 (0x9EF7D2BF58E99ECB8917E07478A03C91)

Complete name : Greyhound.2020.WEB-DL.2160p.H.265.HDR.mkv

Format : Matroska

Format version : Version 4

File size : 16.5 GiB

Duration : 1 h 31 min

Overall bit rate : 25.8 Mb/s

Encoded date : UTC 2020-07-15 15:18:34

Writing application : mkvmerge v8.3.0 ('Over the Horizon') 64bit

Writing library : libebml v1.3.1 + libmatroska v1.4.2



Video

ID : 1

Format : HEVC

Format/Info : High Efficiency Video Coding

Commercial name : HDR10

Format profile : Main [email protected]@High

Codec ID : V_MPEGH/ISO/HEVC

Duration : 1 h 31 min

Bit rate : 23.9 Mb/s

Width : 3 840 pixels

Height : 1 604 pixels

Display aspect ratio : 2.40:1

Frame rate mode : Constant

Frame rate : 23.976 (23976/1000) FPS

Color space : YUV

Chroma subsampling : 4:2:0 (Type 2)

Bit depth : 10 bits

Bits/(Pixel*Frame) : 0.162

Stream size : 15.3 GiB (93%)

Language : English

Default : Yes

Forced : No

Color range : Limited

Color primaries : BT.2020

Transfer characteristics : PQ

Matrix coefficients : BT.2020 non-constant

Mastering display color primaries : Display P3

Mastering display luminance : min: 0.0001 cd/m2, max: 1000 cd/m2

Maximum Content Light Level : 1044 cd/m2

Maximum Frame-Average Light Level : 217 cd/m2



Audio #1

ID : 2

Format : AC-3

Format/Info : Audio Coding 3

Commercial name : Dolby Digital

Codec ID : A_AC3

Duration : 1 h 31 min

Bit rate mode : Constant

Bit rate : 448 kb/s

Channel(s) : 6 channels

Channel layout : L R C LFE Ls Rs

Sampling rate : 48.0 kHz

Frame rate : 31.250 FPS (1536 SPF)

Bit depth : 16 bits

Compression mode : Lossy

Stream size : 294 MiB (2%)

Title : MVO | HDRezka Studio

Language : Russian

Service kind : Complete Main

Default : Yes

Forced : No



Audio #2

ID : 3

Format : AC-3

Format/Info : Audio Coding 3

Commercial name : Dolby Digital

Codec ID : A_AC3

Duration : 1 h 31 min

Bit rate mode : Constant

Bit rate : 448 kb/s

Channel(s) : 6 channels

Channel layout : L R C LFE Ls Rs

Sampling rate : 48.0 kHz

Frame rate : 31.250 FPS (1536 SPF)

Bit depth : 16 bits

Compression mode : Lossy

Stream size : 294 MiB (2%)

Title : MVO | Mallorn

Language : Russian

Service kind : Complete Main

Default : No

Forced : No



Audio #3

ID : 4

Format : AC-3

Format/Info : Audio Coding 3

Commercial name : Dolby Digital

Codec ID : A_AC3

Duration : 1 h 31 min

Bit rate mode : Constant

Bit rate : 192 kb/s

Channel(s) : 2 channels

Channel layout : L R

Sampling rate : 48.0 kHz

Frame rate : 31.250 FPS (1536 SPF)

Bit depth : 16 bits

Compression mode : Lossy

Stream size : 126 MiB (1%)

Title : MVO | HamsterStudio

Language : Russian

Service kind : Complete Main

Default : No

Forced : No



Audio #4

ID : 5

Format : E-AC-3 JOC

Format/Info : Enhanced AC-3 with Joint Object Coding

Commercial name : Dolby Digital Plus with Dolby Atmos

Codec ID : A_EAC3

Duration : 1 h 31 min

Bit rate mode : Constant

Bit rate : 768 kb/s

Channel(s) : 6 channels

Channel layout : L R C LFE Ls Rs

Sampling rate : 48.0 kHz

Frame rate : 31.250 FPS (1536 SPF)

Compression mode : Lossy

Stream size : 504 MiB (3%)

Language : English

Service kind : Complete Main

Default : No

Forced : No

Complexity index : 16

Number of dynamic objects : 15

Bed channel count : 1 channel

Bed channel configuration : LFE



Text #1

ID : 6

Format : UTF-8

Codec ID : S_TEXT/UTF8

Codec ID/Info : UTF-8 Plain Text

Duration : 1 h 29 min

Bit rate : 4 b/s

Count of elements : 61

Stream size : 3.26 KiB (0%)

Title : Forced

Language : Russian

Default : Yes

Forced : No



Text #2

ID : 7

Format : UTF-8

Codec ID : S_TEXT/UTF8

Codec ID/Info : UTF-8 Plain Text

Duration : 1 h 30 min

Bit rate : 94 b/s

Count of elements : 1095

Stream size : 62.9 KiB (0%)

Title : Full

Language : Russian

Default : No

Forced : No



Text #3

ID : 8

Format : UTF-8

Codec ID : S_TEXT/UTF8

Codec ID/Info : UTF-8 Plain Text

Duration : 1 h 30 min

Bit rate : 89 b/s

Count of elements : 1095

Stream size : 59.6 KiB (0%)

Title : Full

Language : Ukrainian

Default : No

Forced : No



Text #4

ID : 9

Format : UTF-8

Codec ID : S_TEXT/UTF8

Codec ID/Info : UTF-8 Plain Text

Duration : 1 h 20 min

Bit rate : 66 b/s

Count of elements : 1033

Stream size : 38.8 KiB (0%)

Title : Full

Language : English

Default : No

Forced : No



Text #5

ID : 10

Format : UTF-8

Codec ID : S_TEXT/UTF8

Codec ID/Info : UTF-8 Plain Text

Duration : 1 h 20 min

Bit rate : 72 b/s

Count of elements : 1105

Stream size : 42.3 KiB (0%)

Title : SDH

Language : English

Default : No

Forced : NoСкриншоты

Discussion

Comments 0

Post Your Comment

Files in this torrent

FILENAMESIZE
Greyhound.2020.WEB-DL.2160p.H.265.HDR.mkv16.5 GB

Alternative Torrents for 'Greyhound HDR'.

TORRENT NAMEADDEDSIZESEEDSPEERSHEALTH
8/3/202016 GB00
7/21/202015.6 GB00
7/15/202016.5 GB00
7/12/20202.3 GB00
7/11/202015.9 GB00
7/11/20206.6 GB00
7/11/202016.2 GB00
7/11/20201.4 GB00
7/10/202015.8 GB00