Palm Springs 2020 WEB-DLRip 720p HDReactor

Torrent Details

Palm Springs 2020 WEB-DLRip 720p HDReactor
Palm Springs 2020 WEB-DLRip 720p HDReactor

NAME
Palm Springs 2020 WEB-DLRip 720p HDReactor.torrent
CATEGORY
Movies
INFOHASH
59ced79fc4fd5b1628db207228773107e22bb822
SIZE
2.3 GB in 1 file
ADDED
Uploaded on 16-07-2020 by our crawler pet called "Spidey".
SWARM
0 seeders & 0 peers
RATING
No votes yet.

Please login to vote for this torrent.


Description

Информация о фильме

Название: Палм-Спрингс

Оригинальное название: Palm Springs

Год выхода: 2020

Жанр: комедия, фантастика

Режиссер: Макс Барбаков

В ролях: Энди Сэмберг, Кристин Милиоти, Дж.К. Симмонс, Тайлер Хэклин, Питер Галлахер, Дейл Дикки, Камила Мендес, Жаклин Обрадорс, Мередит Хагнер, Крис Пэнг



О фильме: В центре истории оказывается Сара, приехавшая в Палм-Спрингс на свадьбу своей сестры. Во время церемонии её внимание привлекает парень в яркой рубашке, который произносит эмоциональную речь. Вскоре Сара и Найлз уединяются в пустыне, где на них нападает незнакомец с луком, а на следующее утро девушка просыпается в номере отеля и неожиданно понимает, что попала в тот же самый день — день свадьбы. Когда Сара обнаруживает Найлза, тот рассказывает ей, что давно застрял во временной петле. Парню предстоит объяснить девушке, как жить в повторяющейся реальности, а также скрываться от Роя, который устроил на него охоту...







Страна: США

Студия: Culmination Productions, Limelight, Party Over Here

Продолжительность: 01:29:59

Перевод: Профессиональный (многоголосый, закадровый) HDRezka Studio



Файл

Качество: WEB-DLRip (720p)

Видео: MPEG-4 AVC, 2932 Кбит/с, 1280x536

Аудио #1: Русский (AC3, 6 ch, 448 Кбит/с)

Аудио #2: Английский (E-AC3, 6 ch, 256 Кбит/с)



МедиаИнфоФормат : Matroska

Версия формата : Version 2

Размер файла : 2,33 Гбайт

Продолжительность : 1 ч. 29 м.

Общий поток : 3710 Кбит/сек

Название фильма : ~V ad~

Дата кодирования : UTC 2020-07-15 21:54:56

Программа кодирования : mkvmerge v6.9.1 ('Blue Panther') 32bit built on Apr 18 2014 18:15:44

Библиотека кодирования : libebml v1.3.0 + libmatroska v1.4.1

Обложка : Yes

Attachments : cover.jpg



Видео

Идентификатор : 1

Формат : AVC

Формат/Информация : Advanced Video Codec

Профиль формата : [email protected]

Настройки формата : CABAC / 11 Ref Frames

Параметр CABAC формата : Да

Параметр RefFrames формата : 11 кадров

Идентификатор кодека : V_MPEG4/ISO/AVC

Продолжительность : 1 ч. 29 м.

Битрейт : 2932 Кбит/сек

Ширина : 1280 пикселей

Высота : 536 пикселей

Соотношение сторон : 2,40:1

Режим частоты кадров : Постоянный

Частота кадров : 24,000 кадра/сек

Цветовое пространство : YUV

Субдискретизация насыщенности : 4:2:0

Битовая глубина : 8 бит

Тип развёртки : Прогрессивная

Бит/(Пиксели*Кадры) : 0.178

Размер потока : 1,84 Гбайт (79%)

Заголовок : ~V~

Библиотека кодирования : x264 core 160 r3000 33f9e14

Настройки программы : cabac=1 / ref=11 / deblock=1:-3:-3 / analyse=0x3:0x133 / me=umh / subme=10 / psy=1 / psy_rd=1.00:0.00 / mixed_ref=1 / me_range=32 / chroma_me=1 / trellis=2 / 8x8dct=1 / cqm=0 / deadzone=21,11 / fast_pskip=0 / chroma_qp_offset=-2 / threads=12 / lookahead_threads=1 / sliced_threads=0 / nr=0 / decimate=0 / interlaced=0 / bluray_compat=0 / constrained_intra=0 / bframes=12 / b_pyramid=2 / b_adapt=2 / b_bias=0 / direct=1 / weightb=1 / open_gop=0 / weightp=2 / keyint=240 / keyint_min=24 / scenecut=40 / intra_refresh=0 / rc=crf / mbtree=0 / crf=17.7 / qcomp=0.65 / qpmin=0 / qpmax=69 / qpstep=4 / ip_ratio=1.30 / pb_ratio=1.20 / aq=3:0.80

Язык : Английский

Default : Да

Forced : Нет



Аудио #1

Идентификатор : 2

Формат : AC-3

Формат/Информация : Audio Coding 3

Коммерческое название : Dolby Digital

Идентификатор кодека : A_AC3

Продолжительность : 1 ч. 29 м.

Вид битрейта : Постоянный

Битрейт : 448 Кбит/сек

Каналы : 6 каналов

Channel layout : L R C LFE Ls Rs

Частота : 48,0 КГц

Частота кадров : 31,250 кадров/сек (1536 SPF)

Битовая глубина : 16 бит

Метод сжатия : С потерями

Размер потока : 288 Мбайт (12%)

Заголовок : MVO [HDRezka Studio]

Язык : Русский

Service Kind : Complete Main

Default : Да

Forced : Нет



Аудио #2

Идентификатор : 3

Формат : E-AC-3

Формат/Информация : Enhanced AC-3

Коммерческое название : Dolby Digital Plus

Идентификатор кодека : A_EAC3

Продолжительность : 1 ч. 29 м.

Вид битрейта : Постоянный

Битрейт : 256 Кбит/сек

Каналы : 6 каналов

Channel layout : L R C LFE Ls Rs

Частота : 48,0 КГц

Частота кадров : 31,250 кадров/сек (1536 SPF)

Метод сжатия : С потерями

Размер потока : 165 Мбайт (7%)

Язык : Английский

Service Kind : Complete Main

Default : Нет

Forced : Нет



Текст #1

Идентификатор : 4

Формат : UTF-8

Идентификатор кодека : S_TEXT/UTF8

Идентификатор кодека/Информация : UTF-8 Plain Text

Продолжительность : 1 ч. 3 м.

Битрейт : 2 бит/сек

ElementCount : 19

Размер потока : 1,01 Кбайт (0%)

Заголовок : forced

Язык : Русский

Default : Да

Forced : Нет



Текст #2

Идентификатор : 5

Формат : UTF-8

Идентификатор кодека : S_TEXT/UTF8

Идентификатор кодека/Информация : UTF-8 Plain Text

Продолжительность : 1 ч. 29 м.

Битрейт : 67 бит/сек

ElementCount : 1559

Размер потока : 44,7 Кбайт (0%)

Язык : Английский

Default : Нет

Forced : Нет





Скриншоты





Релиз от:

Discussion

Comments 0

Post Your Comment

Files in this torrent

FILENAMESIZE
Palm.Springs.2020.WEB-DLRip.720p.HDReactor.mkv2.3 GB

Alternative Torrents for 'Palm Springs DLRip HDReactor'.

TORRENT NAMEADDEDSIZESEEDSPEERSHEALTH
8/17/20202.8 GB00
7/16/20202.3 GB00