Greyhound 2020 WEB-DL AVC ExKinoRay

Torrent Details

Greyhound 2020 WEB-DL AVC<span style=color:#fc9c6d> ExKinoRay</span>
Greyhound 2020 WEB-DL AVC<span style=color:#fc9c6d> ExKinoRay</span>

NAME
Greyhound 2020 WEB-DL AVC ExKinoRay.torrent
CATEGORY
Movies
INFOHASH
b856758c43fbc729bca3c429584f079417aeeab4
SIZE
1.6 GB in 1 file
ADDED
Uploaded on 16-07-2020 by our crawler pet called "Spidey".
SWARM
0 seeders & 0 peers
RATING
No votes yet.

Please login to vote for this torrent.


Description

Название: Грейхаунд

Оригинальное название: Greyhound

Год выхода: 2020

Жанр: Военный, боевик, история, биография

Режиссер: Аарон Шнайдер

В ролях: Том Хэнкс, Стивен Грэм, Элизабет Шу, Майкл Бенц, Роб Морган, Дэвид Мальдонадо, Джими Стэнтон, Мэтт Хелм, Том Бриттни, Мануэль Рульфо





О фильме: В 1942 году офицера морского флота Эрнста Краузе назначают капитаном эсминца "Грейхаунд". Приняв командование, ему необходимо провести конвой из кораблей через воды Северной Атлантики, переполненные немецкими подводными лодками. Но чтобы уйти от преследования врага и сохранить экипаж, ему нужно проявить умение и небывалые тактические навыки.







Страна: Китай, Канада, США

Студия: Bron Studios, Columbia Pictures Corporation, Creative Artists Agency (CAA), Creative Wealth Media Finance, Playtone

Продолжительность: 01:31:42

Перевод: Профессиональный (многоголосый, закадровый) | HDRezka Studio



Формат: MKV

Качество: WEB-DLRip-AVC

Видео: MPEG-4 AVC, 1024x428 (2.40:1), 2020 kbps, 23.976 fps

Аудио : 48 kHz, AC3, 5.1, 448 Kbps | MVO | RUS |

Субтитры: Русские (forced, full), английские, украинские







ОтчетМедиаИнфо

General

Unique ID : 171236853678662664870961639871601611599 (0x80D304B667015A7FBE79885E9782934F)

Complete name : F:Greyhound.2020.WEB-DL.AVC.ExKinoRay.mkv

Format : Matroska

Format version : Version 2

File size : 1.58 GiB

Duration : 1 h 31 min

Overall bit rate : 2 462 kb/s

Movie name : Greyhound 2020 from ExKinoRay

Encoded date : UTC 2020-07-15 20:00:17

Writing application : mkvmerge v5.6.0 ('Kenya Kane') built on May 27 2012 16:44:04

Writing library : libebml v1.2.3 + libmatroska v1.3.0



Video

ID : 1

Format : AVC

Format/Info : Advanced Video Codec

Format profile : [email protected]

Format settings, CABAC : Yes

Format settings, ReFrames : 11 frames

Codec ID : V_MPEG4/ISO/AVC

Duration : 1 h 31 min

Bit rate : 2 020 kb/s

Width : 1 024 pixels

Height : 428 pixels

Display aspect ratio : 2.40:1

Frame rate mode : Constant

Frame rate : 23.976 (23976/1000) FPS

Color space : YUV

Chroma subsampling : 4:2:0

Bit depth : 8 bits

Scan type : Progressive

Bits/(Pixel*Frame) : 0.192

Stream size : 1.26 GiB (80%)

Title : Enigma

Writing library : x264 core 152 r2851 ba24899

Encoding settings : cabac=1 / ref=11 / deblock=1:-2:-2 / analyse=0x3:0x113 / me=umh / subme=10 / psy=1 / psy_rd=1.03:0.07 / mixed_ref=1 / me_range=32 / chroma_me=1 / trellis=2 / 8x8dct=1 / cqm=0 / deadzone=21,11 / fast_pskip=0 / chroma_qp_offset=-3 / threads=12 / lookahead_threads=2 / sliced_threads=0 / nr=0 / decimate=0 / interlaced=0 / bluray_compat=0 / constrained_intra=0 / bframes=9 / b_pyramid=2 / b_adapt=2 / b_bias=0 / direct=3 / weightb=1 / open_gop=0 / weightp=2 / keyint=240 / keyint_min=23 / scenecut=40 / intra_refresh=0 / rc=2pass / mbtree=0 / bitrate=2020 / ratetol=1.0 / qcomp=0.60 / qpmin=0 / qpmax=51 / qpstep=4 / cplxblur=20.0 / qblur=0.5 / ip_ratio=1.40 / pb_ratio=1.30 / aq=1:1.00

Language : English

Default : Yes

Forced : No

Color range : Limited

Color primaries : BT.709

Transfer characteristics : BT.709

Matrix coefficients : BT.709



Audio

ID : 2

Format : AC-3

Format/Info : Audio Coding 3

Mode extension : CM (complete main)

Format settings, Endianness : Big

Codec ID : A_AC3

Duration : 1 h 31 min

Bit rate mode : Constant

Bit rate : 448 kb/s

Channel(s) : 6 channels

Channel positions : Front: L C R, Side: L R, LFE

Sampling rate : 48.0 kHz

Frame rate : 31.250 FPS (1536 spf)

Compression mode : Lossy

Stream size : 294 MiB (18%)

Title : MVO | HDRezka Studio

Language : Russian

Default : Yes

Forced : No



Text #1

ID : 3

Format : UTF-8

Codec ID : S_TEXT/UTF8

Codec ID/Info : UTF-8 Plain Text

Title : Forsed

Language : Russian

Default : Yes

Forced : No



Text #2

ID : 4

Format : UTF-8

Codec ID : S_TEXT/UTF8

Codec ID/Info : UTF-8 Plain Text

Title : Russian

Language : Russian

Default : No

Forced : No



Text #3

ID : 5

Format : UTF-8

Codec ID : S_TEXT/UTF8

Codec ID/Info : UTF-8 Plain Text

Title : Ukrainian

Language : Ukrainian

Default : No

Forced : No



Text #4

ID : 6

Format : UTF-8

Codec ID : S_TEXT/UTF8

Codec ID/Info : UTF-8 Plain Text

Title : English

Language : English

Default : No

Forced : No



Text #5

ID : 7

Format : UTF-8

Codec ID : S_TEXT/UTF8

Codec ID/Info : UTF-8 Plain Text

Title : English [SDH]

Language : English

Default : No

Forced : No



















Релиз от:



Автор релиза:

Discussion

Comments 0

Post Your Comment

Files in this torrent

FILENAMESIZE
Greyhound.2020.WEB-DL.AVC.ExKinoRay.mkv1.6 GB

Alternative Torrents for 'Greyhound AVC'.

TORRENT NAMEADDEDSIZESEEDSPEERSHEALTH
7/16/20201.6 GB00
4/14/201915.2 GB00