18+ Mermaid Down 2019 HDRip XviD AC3

Torrent Details


18+ Mermaid Down 2019 HDRip XviD AC3

NAME
18+ Mermaid Down 2019 HDRip XviD AC3.torrent
CATEGORY
Movies
INFOHASH
9691c105bc86264240e1b0deaa9b1e4e20c543a7
SIZE
1 GB in 4 files
ADDED
Uploaded on 16-07-2020 by our crawler pet called "Spidey".
SWARM
0 seeders & 0 peers
RATING
No votes yet.

Please login to vote for this torrent.


Description

Quote:



******************************Thumbnail:**********************







******************************Screenshots:********************



screenshot 1



screenshot 2



screenshot 3



screenshot 4



screenshot 5



screenshot 6



screenshot 7



screenshot 8



screenshot 9



screenshot 0





******************************************************



18+.Mermaid.Down.2019.HDRip.XviD.AC3.LLG.mp4

Format                                   : MPEG-4

Format profile                           : Base Media

Codec ID                                 : isom (isom/iso2/avc1/mp41)

File size                                : 993 MiB

Duration                                 : 1 h 34 min

Overall bit rate mode                    : Variable

Overall bit rate                         : 1 466 kb/s





Video

ID                                       : 1

Format                                   : AVC

Format/Info                              : Advanced Video Codec

Format profile                           : [email protected]

Format settings                          : CABAC / 1 Ref Frames

Format settings, CABAC                   : Yes

Format settings, Reference frames        : 1 frame

Codec ID                                 : avc1

Codec ID/Info                            : Advanced Video Coding

Duration                                 : 1 h 34 min

Bit rate mode                            : Variable

Bit rate                                 : 1 079 kb/s

Maximum bit rate                         : 3 600 kb/s

Width                                    : 720 pixels

Height                                   : 300 pixels

Display aspect ratio                     : 2.40:1

Frame rate mode                          : Constant

Frame rate                               : 23.976 (23976/1000) FPS

Color space                              : YUV

Chroma subsampling                       : 4:2:0

Bit depth                                : 8 bits

Scan type                                : Progressive

Bits/(Pixel*Frame)                       : 0.208

Stream size                              : 730 MiB (74%)





Audio

ID                                       : 2

Format                                   : AC-3

Format/Info                              : Audio Coding 3

Commercial name                          : Dolby Digital

Codec ID                                 : ac-3

Duration                                 : 1 h 34 min

Bit rate mode                            : Constant

Bit rate                                 : 384 kb/s

Channel(s)                               : 6 channels

Channel layout                           : L R C LFE Ls Rs

Sampling rate                            : 48.0 kHz

Frame rate                               : 31.250 FPS (1536 SPF)

Compression mode                         : Lossy

Stream size                              : 260 MiB (26%)

Language                                 : English

Service kind                             : Complete Main

Default                                  : Yes

Alternate group                          : 1













********************************************************



[quote]

Discussion

Comments 0

Post Your Comment

Files in this torrent

FILENAMESIZE
18+.Mermaid.Down.2019.HDRip.XviD.AC3.LLG.mp4992.6 MB
MV5BNWZlMmU1MGQ[email protected]@._V1_UX182_CR0,0,182,268_AL__QL50.jpg7.1 KB
Sample 2.ts10.9 MB
Sample.ts50.1 MB

Alternative Torrents for 'Mermaid Down'.

TORRENT NAMEADDEDSIZESEEDSPEERSHEALTH
8/3/20202.2 GB00
7/27/20201.5 GB00
7/27/20201.5 GB00
7/16/20201 GB00
7/12/20203.1 GB00
6/23/20201.5 GB00
6/19/20202 GB00
6/19/2020743 MB00
6/19/2020745 MB00
6/18/20201.5 GB00
5/11/20201.8 GB00
4/2/20204.3 GB00
4/2/20204.3 GB00
4/2/20204.3 GB00
2/13/2020835 MB00