Hightown Season 1

Torrent Details

Hightown Season 1

NAME
Hightown Season 1.torrent
CATEGORY
Television
INFOHASH
93573601a90403e201401d8d41733e6e149a43cb
SIZE
4.7 GB in 8 files
ADDED
Uploaded on 18-07-2020 by our crawler pet called "Spidey".
SWARM
0 seeders & 0 peers
RATING
No votes yet.

Please login to vote for this torrent.


Description

https://www.imdb.com/title/tt7718110



Format : Matroska
Format version : Version 4
Overall bit rate : 1 592 kb/s
Writing application : mkvmerge v46.0.0 ('No Deeper Escape') 64-bit
Writing library : libebml v1.3.10 + libmatroska v1.5.2

Video
ID : 1
Format : AVC
Format/Info : Advanced Video Codec
Format profile : [email protected]
Format settings : CABAC / 4 Ref Frames
Format settings, CABAC : Yes
Format settings, Reference frames : 4 frames
Codec ID : V_MPEG4/ISO/AVC
Duration : 56 min 48 s
Bit rate mode : Constant
Bit rate : 1 366 kb/s
Nominal bit rate : 2 000 kb/s
Width : 720 pixels
Height : 404 pixels
Display aspect ratio : 16:9
Frame rate mode : Constant
Frame rate : 23.976 (24000/1001) FPS
Color space : YUV
Chroma subsampling : 4:2:0
Bit depth : 8 bits
Scan type : Progressive
Bits/(Pixel*Frame) : 0.196
Stream size : 555 MiB (86%)
Default : Yes
Forced : No
Color range : Limited
Color primaries : BT.709
Transfer characteristics : BT.709
Matrix coefficients : BT.709

Audio
ID : 2
Format : E-AC-3
Format/Info : Enhanced AC-3
Commercial name : Dolby Digital Plus
Codec ID : A_EAC3
Duration : 56 min 48 s
Bit rate mode : Constant
Bit rate : 224 kb/s
Channel(s) : 2 channels
Channel layout : L R
Sampling rate : 48.0 kHz
Frame rate : 31.250 FPS (1536 SPF)
Compression mode : Lossy
Delay relative to video : 32 ms
Stream size : 91.0 MiB (14%)
Title : English
Language : English
Service kind : Complete Main
Default : Yes
Forced : No

Text
ID : 3
Format : UTF-8
Codec ID : S_TEXT/UTF8
Codec ID/Info : UTF-8 Plain Text
Duration : 56 min 31 s
Bit rate : 77 b/s
Count of elements : 1189
Stream size : 32.1 KiB (0%)
Title : English (SDH)
Language : English
Default : No
Forced : No

Discussion

Comments 0

Post Your Comment

Files in this torrent

FILENAMESIZE
S01E01 Love You Like a Sister.mkv646.9 MB
S01E02 Severely Weatherbeaten.mkv632.9 MB
S01E03 Rebellion Dogs.mkv607.8 MB
S01E04 B.F.O..mkv608 MB
S01E05 The Best You'll Feel All Day.mkv435.5 MB
S01E06 The White Whale.mkv603.6 MB
S01E07 Everybody's Got a Cousin in Miami.mkv710.5 MB
S01E08 #Blessed.mkv609.5 MB

Alternative Torrents for 'Hightown Season'.

TORRENT NAMEADDEDSIZESEEDSPEERSHEALTH
12/8/202014.8 GB00
7/23/20206.5 GB00
7/21/20201.6 GB00
7/18/20204.7 GB00
7/18/20205.6 GB00
7/13/20202.4 GB00
7/7/20204.9 GB00
7/2/20204.9 GB00
6/25/20204.2 GB00
6/18/20203.5 GB00
6/11/20202.8 GB00
6/4/20202.1 GB00
5/29/20201.4 GB00
5/19/2020719 MB00