The Song Of Scorpions (2020) Hindi 1080p WEBRip X264 AAC 1.8GB HC-ESubs - MovCr

Torrent Details

 The Song of Scorpions (2020) Hindi 1080p WEBRip x264 AAC 1.8GB HC-ESubs <span style=color:#fc9c6d>- MovCr</span>
 The Song of Scorpions (2020) Hindi 1080p WEBRip x264 AAC 1.8GB HC-ESubs <span style=color:#fc9c6d>- MovCr</span>

NAME
The Song of Scorpions (2020) Hindi 1080p WEBRip x264 AAC 1.8GB HC-ESubs - MovCr.torrent
CATEGORY
Movies
INFOHASH
79e6a67248bf26f15f285f1fc6b260643b904030
SIZE
1.8 GB in 1 file
ADDED
Uploaded on 19-07-2020 by our crawler pet called "Spidey".
SWARM
0 seeders & 0 peers
RATING
No votes yet.

Please login to vote for this torrent.


Description

https://MovCr.to

















The Song of Scorpions (2020) Hindi 1080p WEBRip x264 AAC 1.8GB HC-ESubs - MovCr



















Video

ID                          : 1

Format                      : AVC

Format/Info                 : Advanced Video Codec

Format profile              : [email protected]

Format settings             : CABAC / 4 Ref Frames

Format settings, CABAC      : Yes

Format settings, Reference  : 4 frames

Codec ID                    : V_MPEG4/ISO/AVC

Duration                    : 1 h 59 min

Bit rate                    : 1 945 kb/s

Width                       : 1 920 pixels

Height                      : 808 pixels

Display aspect ratio        : 2.40:1

Frame rate mode             : Constant

Frame rate                  : 24.000 FPS

Color space                 : YUV

Chroma subsampling          : 4:2:0

Bit depth                   : 8 bits

Scan type                   : Progressive

Bits/(Pixel*Frame)          : 0.052

Stream size                 : 1.62 GiB (92%)

Title                       : www.MovCr.to

Writing library             : x264 core 157 r2935 545de2f

Default                     : Yes

Forced                      : No

Color range                 : Limited

Color primaries             : BT.709

Transfer characteristics    : BT.709

Matrix coefficients         : BT.709



Audio

ID                          : 2

Format                      : AAC LC

Format/Info                 : Advanced Audio Codec Low Complexity

Codec ID                    : A_AAC-2

Duration                    : 1 h 59 min

Bit rate                    : 160 kb/s

Channel(s)                  : 2 channels

Channel layout              : L R

Sampling rate               : 48.0 kHz

Frame rate                  : 46.875 FPS (1024 SPF)

Compression mode            : Lossy

Delay relative to video     : -21 ms

Stream size                 : 137 MiB (8%)

Language                    : Hindi

Default                     : Yes

Forced                      : No























Discussion

Comments 0

Post Your Comment

Files in this torrent

FILENAMESIZE
www.MovCr.to - The Song of Scorpions (2020) Hindi 1080p WEBRip x264 AAC 1.8GB HC-ESubs - MovCr.mkv1.8 GB

Alternative Torrents for 'Song of Scorpions Hindi AAC ESubs'.

TORRENT NAMEADDEDSIZESEEDSPEERSHEALTH
7/19/20201.8 GB00
7/18/20201014 MB00