Bad Boys For Life (2020) 720p H264 Ita Eng Sub Ita Eng-MIRCrew

Torrent Details

Bad Boys for Life (2020) 720p h264 ita eng sub ita eng<span style=color:#fc9c6d>-MIRCrew</span>
Bad Boys for Life (2020) 720p h264 ita eng sub ita eng<span style=color:#fc9c6d>-MIRCrew</span>

NAME
Bad Boys for Life (2020) 720p h264 ita eng sub ita eng-MIRCrew.torrent
CATEGORY
Movies
INFOHASH
4f5216fc95fb2f043ac41aeb5364b46f5b4682c8
SIZE
2.3 GB in 4 files
ADDED
Uploaded on 19-07-2020 by our crawler pet called "Spidey".
SWARM
0 seeders & 0 peers
RATING
No votes yet.

Please login to vote for this torrent.


Description

Bad Boys for Life (2020).720p.H264.ita.eng.Ac3-5.1.sub.ita.eng-MIRCrew


NO FOUND ONLY ORIGINAL RELEASE

My release is always in double track audio italian and Original audio
for select it use VLC or dvd player home
not use wmp

Bad Boys for Life (2020)

Quality MIRCrew on HD 720p da 2,2 gb










Lingua originale inglese
Paese di produzione Stati Uniti d'America
Anno 2020
Durata 123 min
Genere azione, commedia, poliziesco
Regia Adil El Arbi e Bilall Fallah
Soggetto George Gallo, Joe Carnahan, Chris Bremner, Peter Craig
Sceneggiatura Joe Carnahan, Chris Bremner, Peter Craig





Will Smith: Michael "Mike" Lowrey
Martin Lawrence: Marcus Burnett
Kate del Castillo: Isabel Aretas
Vanessa Hudgens: Kelly
Alexander Ludwig: Dorn
Charles Melton: Rafe
Paola Núñez: Rita Sécada
Nicky Jam: Lorenzo "Zway-Lo" Rodriguez
Joe Pantoliano: Conrad Howard
Theresa Randle: Theresa Burnett
Thomas Brag: Cake Boy
Jacob Scipio: Armando Aretas
Massi Furlan: Lee Taglin
DJ Khaled: Manny





La spietata assassina di un potente cartello messicano, Isabel Aretas detta "La bruja" (la strega), riesce a fuggire da un carcere di massima sicurezza messicano grazie all'aiuto del figlio Armando ed insieme iniziano la loro vendetta contro chi gli ha procurato tanta sofferenza, primo fra tutti Mike Lowrey.



Miami detectives Mike Lowrey and Marcus Burnett must face off against a mother-and-son pair of drug lords who wreak vengeful havoc on their city

 
















General
Unique ID                                : 199285887382121360989657281381794379445 (0x95ED10D849DCD60F95EAE1A6F6A8F6B5)
Complete name                            : Bad Boys for Life (2020).720p.h264.ita.eng.sub.ita.eng-MIRCrewBad Boys for Life (2020).720p.h264.ita.eng.sub.ita.eng-MIRCrew.mkv
Format                                   : Matroska
Format version                           : Version 2
File size                                : 2.29 GiB
Duration                                 : 2h 3mn
Overall bit rate                         : 2 641 Kbps
Movie name                               : MIRCrew
Encoded date                             : UTC 2020-04-29 16:13:33
Writing application                      : mkvmerge v5.8.0 ('No Sleep / Pillow') built on Sep  2 2012 15:37:04
Writing library                          : Lavf54.63.100
COMMENT                                  : MIRCrew

Video
ID                                       : 1
Format                                   : AVC
Format/Info                              : Advanced Video Codec
Format profile                           : [email protected]
Format settings, CABAC                   : Yes
Format settings, ReFrames                : 2 frames
Codec ID                                 : V_MPEG4/ISO/AVC
Duration                                 : 2h 3mn
Bit rate                                 : 1 900 Kbps
Width                                    : 1 280 pixels
Height                                   : 536 pixels
Display aspect ratio                     : 2.40:1
Frame rate mode                          : Variable
Frame rate                               : 23.976 fps
Color space                              : YUV
Chroma subsampling                       : 4:2:0
Bit depth                                : 8 bits
Scan type                                : Progressive
Bits/(Pixel*Frame)                       : 0.116
Stream size                              : 1.58 GiB (69%)
Title                                    : MIRCrew
Writing library                          : x264 core 130 r2273
Encoding settings                        : cabac=1 / ref=2 / deblock=1:-1:-1 / analyse=0x1:0x131 / me=hex / subme=7 / psy=1 / psy_rd=1.00:0.10 / mixed_ref=0 / me_range=16 / chroma_me=1 / trellis=1 / 8x8dct=0 / cqm=0 / deadzone=21,11 / fast_pskip=1 / chroma_qp_offset=-3 / threads=9 / lookahead_threads=1 / sliced_threads=0 / nr=0 / decimate=1 / interlaced=0 / bluray_compat=0 / constrained_intra=0 / bframes=3 / b_pyramid=0 / b_adapt=1 / b_bias=0 / direct=3 / weightb=1 / open_gop=0 / weightp=2 / keyint=230 / keyint_min=23 / scenecut=40 / intra_refresh=0 / rc_lookahead=40 / rc=abr / mbtree=1 / bitrate=1900 / ratetol=1.0 / qcomp=0.60 / qpmin=10 / qpmax=69 / qpstep=4 / vbv_maxrate=24000 / vbv_bufsize=24000 / nal_hrd=none / ip_ratio=1.40 / aq=1:1.00
Language                                 : Italian
Default                                  : Yes
Forced                                   : No
DURATION                                 : 02:03:58.473000000
NUMBER_OF_FRAMES                         : 178344
NUMBER_OF_BYTES                          : 2090909763
_STATISTICS_WRITING_APP                  : mkvmerge v45.0.0 ('Heaven in Pennies') 64-bit
_STATISTICS_WRITING_DATE_UTC             : 2020-04-29 16:13:33
_STATISTICS_TAGS                         : BPS DURATION NUMBER_OF_FRAMES NUMBER_OF_BYTES

Audio #1
ID                                       : 2
Format                                   : AC-3
Format/Info                              : Audio Coding 3
Mode extension                           : CM (complete main)
Codec ID                                 : A_AC3
Duration                                 : 2h 3mn
Bit rate mode                            : Constant
Bit rate                                 : 384 Kbps
Channel(s)                               : 6 channels
Channel positions                        : Front: L C R, Side: L R, LFE
Sampling rate                            : 48.0 KHz
Bit depth                                : 16 bits
Compression mode                         : Lossy
Delay relative to video                  : -5ms
Stream size                              : 341 MiB (15%)
Title                                    : Ita Ac3 5.1
Language                                 : Italian
Default                                  : Yes
Forced                                   : Yes
DURATION                                 : 02:03:57.792000000
NUMBER_OF_FRAMES                         : 232431
NUMBER_OF_BYTES                          : 357014016
_STATISTICS_WRITING_APP                  : mkvmerge v45.0.0 ('Heaven in Pennies') 64-bit
_STATISTICS_WRITING_DATE_UTC             : 2020-04-29 16:13:33
_STATISTICS_TAGS                         : BPS DURATION NUMBER_OF_FRAMES NUMBER_OF_BYTES

Audio #2
ID                                       : 3
Format                                   : AC-3
Format/Info                              : Audio Coding 3
Mode extension                           : CM (complete main)
Codec ID                                 : A_AC3
Duration                                 : 2h 3mn
Bit rate mode                            : Constant
Bit rate                                 : 384 Kbps
Channel(s)                               : 6 channels
Channel positions                        : Front: L C R, Side: L R, LFE
Sampling rate                            : 48.0 KHz
Bit depth                                : 16 bits
Compression mode                         : Lossy
Delay relative to video                  : -5ms
Stream size                              : 341 MiB (15%)
Title                                    : Eng Ac3 5.1
Language                                 : English
Default                                  : No
Forced                                   : No
DURATION                                 : 02:03:58.464000000
NUMBER_OF_FRAMES                         : 232452
NUMBER_OF_BYTES                          : 595077120
_STATISTICS_WRITING_APP                  : mkvmerge v45.0.0 ('Heaven in Pennies') 64-bit
_STATISTICS_WRITING_DATE_UTC             : 2020-04-29 16:13:33
_STATISTICS_TAGS                         : BPS DURATION NUMBER_OF_FRAMES NUMBER_OF_BYTES

Menu
00:00:00.000                             : :Chapter 01
00:07:33.203                             : :Chapter 02
00:14:56.646                             : :Chapter 03
00:23:43.255                             : :Chapter 04
00:31:05.614                             : :Chapter 05
00:38:43.071                             : :Chapter 06
00:45:26.349                             : :Chapter 07
00:53:27.329                             : :Chapter 08
01:00:22.035                             : :Chapter 09
01:07:29.254                             : :Chapter 10
01:12:55.162                             : :Chapter 11
01:22:12.344                             : :Chapter 12
01:29:49.092                             : :Chapter 13
01:36:47.802                             : :Chapter 14
01:42:08.581                             : :Chapter 15
01:53:55.912                             : :Chapter 16
01:58:00.699                             : :Chapter 17




[left]What do you want to do ?[/left]
New mail
Copy

Discussion

Comments 0

Post Your Comment

Files in this torrent

FILENAMESIZE
Bad Boys for Life (2020).720p.h264.ita.eng.sub.ita.eng-MIRCrew.eng.srt136.6 KB
Bad Boys for Life (2020).720p.h264.ita.eng.sub.ita.eng-MIRCrew.ita.srt113.7 KB
Bad Boys for Life (2020).720p.h264.ita.eng.sub.ita.eng-MIRCrew.mkv2.3 GB
Bad Boys for Life (2020).720p.h264.ita.eng.sub.ita.eng-MIRCrew.srt5.8 KB

Alternative Torrents for 'Bad Boys for Life eng sub eng'.

TORRENT NAMEADDEDSIZESEEDSPEERSHEALTH
7/19/20202.3 GB00
5/6/20201.3 GB00
5/3/202012.7 GB00
5/2/202019.8 GB00
4/29/20202.7 GB00
4/29/20202.8 GB00