CARLITOS_WAY_Title1

Torrent Details

CARLITOS_WAY_Title1

NAME
CARLITOS_WAY_Title1.torrent
CATEGORY
Movies
INFOHASH
4bcbf1ab0ad13226ecbf4d5466eae5b96be494d9
SIZE
1.5 GB in 1 file
ADDED
Uploaded on 20-07-2020 by our crawler pet called "Spidey".
SWARM
1 seeders & 0 peers
RATING
No votes yet.

Please login to vote for this torrent.


Description







Carlito's Way (1993)

480p Dvd Rip

Hash Code:

4BCBF1AB0AD13226ECBF4D5466EAE5B96BE494D9























^Tap on image above for IMDb Info for this film^



General

Complete name                            : CARLITOS_WAY_Title1.mp4

Format                                   : MPEG-4

Format profile                           : Base Media

Codec ID                                 : isom (isom/iso2/avc1/mp41)

File size                                : 1.50 GiB

Duration                                 : 2 h 24 min

Overall bit rate                         : 1 491 kb/s

Movie name                               : CARLITOS_WAY

Genre                                    : Crime

Writing application                      : Lavf54.6.100



Video

ID                                       : 1

Format                                   : AVC

Format/Info                              : Advanced Video Codec

Format profile                           : [email protected]

Format settings                          : 6 Ref Frames

Format settings, CABAC                   : No

Format settings, Reference frames        : 6 frames

Codec ID                                 : avc1

Codec ID/Info                            : Advanced Video Coding

Duration                                 : 2 h 24 min

Bit rate                                 : 1 213 kb/s

Width                                    : 720 pixels

Height                                   : 404 pixels

Display aspect ratio                     : 16:9

Frame rate mode                          : Constant

Frame rate                               : 29.970 (30000/1001) FPS

Color space                              : YUV

Chroma subsampling                       : 4:2:0

Bit depth                                : 8 bits

Scan type                                : Progressive

Bits/(Pixel*Frame)                       : 0.139

Stream size                              : 1.22 GiB (81%)

Codec configuration box                  : avcC



Audio

ID                                       : 2

Format                                   : AAC LC

Format/Info                              : Advanced Audio Codec Low Complexity

Codec ID                                 : mp4a-40-2

Duration                                 : 2 h 24 min

Bit rate mode                            : Constant

Bit rate                                 : 271 kb/s

Channel(s)                               : 6 channels

Channel layout                           : C L R Ls Rs LFE

Sampling rate                            : 44.1 kHz

Frame rate                               : 43.066 FPS (1024 SPF)

Compression mode                         : Lossy

Stream size                              : 280 MiB (18%)

Default                                  : Yes

Alternate group                          : 1

Discussion

Comments 0

Post Your Comment

Files in this torrent

FILENAMESIZE
CARLITOS_WAY_Title1.mp41.5 GB

Alternative Torrents for 'CARLITOSWAYTitle'.

There are no alternative torrents found.