18+ Night Out 2018 DVDRiP X264 With Sample

Torrent Details


18+ Night Out 2018 DVDRiP x264 With Sample

NAME
18+ Night Out 2018 DVDRiP x264 With Sample.torrent
CATEGORY
Movies
INFOHASH
d5339e24915fc05ae4237c1f0eb232b95728b06b
SIZE
678 MB in 3 files
ADDED
Uploaded on 20-07-2020 by our crawler pet called "Spidey".
SWARM
0 seeders & 2 peers
RATING
No votes yet.

Please login to vote for this torrent.


Description

Quote:



******************************Thumbnail:**********************







******************************Screenshots:********************



screenshot 1



screenshot 2



screenshot 3



screenshot 4



screenshot 5



screenshot 6



screenshot 7



screenshot 8



screenshot 9



screenshot 0





******************************************************



18+.Night.Out.2018.DVDRiP.x264.With.Sample.LLG.mp4

Format                                   : MPEG-4

Format profile                           : Base Media

Codec ID                                 : isom (isom/iso2/avc1/mp41)

File size                                : 662 MiB

Duration                                 : 1 h 28 min

Overall bit rate mode                    : Variable

Overall bit rate                         : 1 050 kb/s





Video

ID                                       : 1

Format                                   : AVC

Format/Info                              : Advanced Video Codec

Format profile                           : [email protected]

Format settings                          : CABAC / 1 Ref Frames

Format settings, CABAC                   : Yes

Format settings, Reference frames        : 1 frame

Codec ID                                 : avc1

Codec ID/Info                            : Advanced Video Coding

Duration                                 : 1 h 28 min

Bit rate mode                            : Variable

Bit rate                                 : 914 kb/s

Maximum bit rate                         : 2 700 kb/s

Width                                    : 700 pixels

Height                                   : 302 pixels

Display aspect ratio                     : 2.35:1

Frame rate mode                          : Constant

Frame rate                               : 25.000 FPS

Color space                              : YUV

Chroma subsampling                       : 4:2:0

Bit depth                                : 8 bits

Scan type                                : Progressive

Bits/(Pixel*Frame)                       : 0.173

Stream size                              : 577 MiB (87%)





Audio

ID                                       : 2

Format                                   : AAC LC

Format/Info                              : Advanced Audio Codec Low Complexity

Codec ID                                 : mp4a-40-2

Duration                                 : 1 h 28 min

Bit rate mode                            : Constant

Bit rate                                 : 132 kb/s

Channel(s)                               : 2 channels

Channel layout                           : L R

Sampling rate                            : 48.0 kHz

Frame rate                               : 46.875 FPS (1024 SPF)

Compression mode                         : Lossy

Stream size                              : 81.9 MiB (12%)

Language                                 : English

Default                                  : Yes

Alternate group                          : 1







********************************************************



[quote]

Discussion

Comments 0

Post Your Comment

Files in this torrent

FILENAMESIZE
18+.Night.Out.2018.DVDRiP.x264.With.Sample.LLG.mp4662.2 MB
Sample 2.mp412.8 MB
SAMPLE.mp43 MB

Alternative Torrents for 'Night Out DVDRiP With Sample'.

TORRENT NAMEADDEDSIZESEEDSPEERSHEALTH
7/20/2020678 MB00
12/25/2018663 MB00