NTT Indycar Series 2020 Iowa 250 Race 1 HDTV X264 720

Torrent Details


NTT Indycar Series 2020 Iowa 250 Race 1 HDTV x264 720

NAME
NTT Indycar Series 2020 Iowa 250 Race 1 HDTV x264 720.torrent
CATEGORY
Television
INFOHASH
851a9cf116b9c63e1fb23bca11518ba4d6bb93da
SIZE
3.1 GB in 3 files
ADDED
Uploaded on 20-07-2020 by our crawler pet called "Spidey".
SWARM
0 seeders & 0 peers
RATING
No votes yet.

Please login to vote for this torrent.


Description

NTT IndyCar Series 2020





Iowa 250 Race 1

Newton IA

Friday July 17th

7:30 PM















General

Complete name                            : NTT Indycar Series 2020 Iowa 250 Race 1 HDTV x264 720.mkv

Format                                   : Matroska

Format version                           : Version 4

File size                                : 3.06 GiB

Duration                                 : 2 h 8 min

Overall bit rate                         : 3 414 kb/s

Encoded date                             : UTC 2020-07-20 05:16:01

Writing application                      : mkvmerge v43.0.0 ('The Quartermaster') 64-bit

Writing library                          : libebml v1.3.10 + libmatroska v1.5.2



Video

ID                                       : 1

Format                                   : AVC

Format/Info                              : Advanced Video Codec

Format profile                           : [email protected]

Format settings                          : CABAC / 5 Ref Frames

Format settings, CABAC                   : Yes

Format settings, RefFrames               : 5 frames

Codec ID                                 : V_MPEG4/ISO/AVC

Duration                                 : 2 h 8 min

Bit rate                                 : 3 026 kb/s

Width                                    : 1 280 pixels

Height                                   : 720 pixels

Display aspect ratio                     : 16:9

Frame rate mode                          : Constant

Frame rate                               : 59.940 (60000/1001) FPS

Color space                              : YUV

Chroma subsampling                       : 4:2:0

Bit depth                                : 8 bits

Scan type                                : Progressive

Bits/(Pixel*Frame)                       : 0.055

Stream size                              : 2.71 GiB (89%)

Writing library                          : x264 core 148 r2744 b97ae06

Default                                  : Yes

Forced                                   : No



Audio

ID                                       : 2

Format                                   : AC-3

Format/Info                              : Audio Coding 3

Commercial name                          : Dolby Digital

Codec ID                                 : A_AC3

Duration                                 : 2 h 8 min

Bit rate mode                            : Constant

Bit rate                                 : 384 kb/s

Channel(s)                               : 6 channels

Channel layout                           : L R C LFE Ls Rs

Sampling rate                            : 48.0 kHz

Frame rate                               : 31.250 FPS (1536 SPF)

Bit depth                                : 16 bits

Compression mode                         : Lossy

Stream size                              : 353 MiB (11%)

Language                                 : new

Service kind                             : Complete Main

Default                                  : Yes

Forced                                   : No

Discussion

Comments 0

Post Your Comment

Files in this torrent

FILENAMESIZE
Downloaded from.txt64 B
indycar.txt5.4 KB
NTT Indycar Series 2020 Iowa 250 Race 1 HDTV x264 720.mkv3.1 GB

Alternative Torrents for 'NTT Indycar Series Iowa Race'.

TORRENT NAMEADDEDSIZESEEDSPEERSHEALTH
7/20/20202.5 GB00
7/20/20203.1 GB00