The Pink Panther (1963) (1080p BDRip X265 10bit EAC3 5.1 - R0b0t) [TAoE]

Torrent Details

The Pink Panther (1963) (1080p BDRip x265 10bit EAC3 5.1 - r0b0t) <span style=color:#fc9c6d>[TAoE]</span>

NAME
The Pink Panther (1963) (1080p BDRip x265 10bit EAC3 5.1 - r0b0t) [TAoE].torrent
CATEGORY
Movies
INFOHASH
5c00b97877d3bcc6365ca296efa7a38ec54a56a3
SIZE
7.2 GB in 1 file
ADDED
Uploaded on 20-07-2020 by our crawler pet called "Spidey".
SWARM
0 seeders & 3 peers
RATING
No votes yet.

Please login to vote for this torrent.


Description



Hello everyone,

We are TAoE, a small team of passionate encoders who love encoding. We try our best to provide you with high quality releases.



Requests for movies and shows are welcome.

We have a form for encode requests which can be found here

Encode requests form

submit your request and it will be added to our encoding request list

You can view our encoding request list here

Encode requests list





When or if we encode it will depend on if we can obtain a good source to encode with and

if one of the TAoE encoders chooses to encode it. Unfortunately we are not able to encode everything,

new members are welcome as that helps us encode more content!



If you would like to join TAoE submit your request here!

TAoE member applications form









The Pink Panther (1963) IMDB















Source

The.Pink.Panther.1963.BluRay.1080p.DTS-HD.MA.5.1.AVC.REMUX-FraMeSToR



Media Information

General

Unique ID                   : 70873605382953939673165198589415151426 (0x3551C287FA91663DDB270BE253405742)

Complete name               : The Pink Panther (1963) (1080p BDRip x265 10bit EAC3 5.1 - r0b0t) [TAoE].mkv

Format                      : Matroska

Format version              : Version 4

File size                   : 7.24 GiB

Duration                    : 1 h 55 min

Overall bit rate            : 8 998 kb/s

Writing application         : Lavf58.29.100

Writing library             : Lavf58.29.100

ErrorDetectionType          : Per level 1



Video

ID                          : 1

Format                      : HEVC

Format/Info                 : High Efficiency Video Coding

Format profile              : Main [email protected]@Main

Codec ID                    : V_MPEGH/ISO/HEVC

Duration                    : 1 h 55 min

Bit rate                    : 8 000 kb/s

Width                       : 1 920 pixels

Height                      : 816 pixels

Display aspect ratio        : 2.35:1

Frame rate mode             : Variable

Frame rate                  : 23.976 FPS

Color space                 : YUV

Chroma subsampling          : 4:2:0

Bit depth                   : 10 bits

Bits/(Pixel*Frame)          : 0.213

Stream size                 : 6.43 GiB (89%)

Title                       : Encoded by r0b0t for TAoE using Shinguru V1.8

Writing library             : x265 3.2+35-acc5d16999e2:[Windows][GCC 9.2.1][64 bit] 10bit

Encoding settings           : cpuid=1111039 / frame-threads=5 / numa-pools=12,12,12,12 / wpp / no-pmode / no-pme / no-psnr / no-ssim / log-level=2 / input-csp=1 / input-res=1920x816 / interlace=0 / total-frames=0 / level-idc=0 / high-tier=1 / uhd-bd=0 / ref=4 / no-allow-non-conformance / no-repeat-headers / annexb / no-aud / no-hrd / info / hash=0 / no-temporal-layers / open-gop / min-keyint=23 / keyint=250 / gop-lookahead=0 / bframes=8 / b-adapt=2 / b-pyramid / bframe-bias=0 / rc-lookahead=80 / lookahead-slices=4 / scenecut=40 / hist-scenecut=0 / radl=0 / no-splice / no-intra-refresh / ctu=64 / min-cu-size=8 / no-rect / no-amp / max-tu-size=32 / tu-inter-depth=1 / tu-intra-depth=1 / limit-tu=0 / rdoq-level=2 / dynamic-rd=0.00 / no-ssim-rd / signhide / no-tskip / nr-intra=0 / nr-inter=0 / no-constrained-intra / no-strong-intra-smoothing / max-merge=3 / limit-refs=3 / limit-modes / me=3 / subme=5 / merange=57 / temporal-mvp / no-frame-dup / no-hme / weightp / no-weightb / no-analyze-src-pics / deblock=0:0 / sao / no-sao-non-deblock / rd=4 / selective-sao=4 / no-early-skip / rskip / no-fast-intra / no-tskip-fast / no-cu-lossless / no-b-intra / no-splitrd-skip / rdpenalty=0 / psy-rd=1.30 / psy-rdoq=2.00 / no-rd-refine / no-lossless / cbqpoffs=0 / crqpoffs=0 / rc=abr / bitrate=8000 / qcomp=0.60 / qpstep=4 / stats-write=0 / stats-read=2 / cplxblur=20.0 / qblur=0.5 / ipratio=1.40 / pbratio=1.30 / aq-mode=4 / aq-strength=1.10 / cutree / zone-count=0 / no-strict-cbr / qg-size=32 / no-rc-grain / qpmax=69 / qpmin=0 / no-const-vbv / sar=1 / overscan=0 / videoformat=5 / range=0 / colorprim=2 / transfer=2 / colormatrix=2 / chromaloc=0 / display-window=0 / cll=0,0 / min-luma=0 / max-luma=1023 / log2-max-poc-lsb=8 / vui-timing-info / vui-hrd-info / slices=1 / no-opt-qp-pps / no-opt-ref-list-length-pps / no-multi-pass-opt-rps / scenecut-bias=0.05 / hist-threshold=0.01 / no-opt-cu-delta-qp / no-aq-motion / no-hdr10 / no-hdr10-opt / no-dhdr10-opt / no-idr-recovery-sei / analysis-reuse-level=0 / analysis-save-reuse-level=0 / analysis-load-reuse-level=0 / scale-factor=0 / refine-intra=0 / refine-inter=0 / refine-mv=1 / refine-ctu-distortion=0 / no-limit-sao / ctu-info=0 / no-lowpass-dct / refine-analysis-type=0 / copy-pic=1 / max-ausize-factor=1.0 / no-dynamic-refine / no-single-sei / no-hevc-aq / no-svt / no-field / qp-adaptation-range=1.00 / no-scenecut-aware-qpconformance-window-offsets / right=0 / bottom=0

Default                     : Yes

Forced                      : No

Color range                 : Limited



Audio #1

ID                          : 2

Format                      : E-AC-3

Format/Info                 : Enhanced AC-3

Commercial name             : Dolby Digital Plus

Codec ID                    : A_EAC3

Duration                    : 1 h 55 min

Bit rate mode               : Constant

Bit rate                    : 448 kb/s

Channel(s)                  : 6 channels

Channel layout              : L R C LFE Ls Rs

Sampling rate               : 48.0 kHz

Frame rate                  : 31.250 FPS (1536 SPF)

Bit depth                   : 24 bits

Compression mode            : Lossy

Stream size                 : 369 MiB (5%)

Writing library             : Lavc58.54.100 eac3

Language                    : English

Service kind                : Complete Main

Default                     : Yes

Forced                      : No



Audio #2

ID                          : 3

Format                      : E-AC-3

Format/Info                 : Enhanced AC-3

Commercial name             : Dolby Digital Plus

Codec ID                    : A_EAC3

Duration                    : 1 h 55 min

Bit rate mode               : Constant

Bit rate                    : 192 kb/s

Channel(s)                  : 2 channels

Channel layout              : L R

Sampling rate               : 48.0 kHz

Frame rate                  : 31.250 FPS (1536 SPF)

Bit depth                   : 32 bits

Compression mode            : Lossy

Stream size                 : 158 MiB (2%)

Title                       : Commentary By Writer/Director Blake Edwards

Writing library             : Lavc58.54.100 eac3

Language                    : English

Service kind                : Complete Main

Default                     : No

Forced                      : No



Text #1

ID                          : 4

Format                      : PGS

Codec ID                    : S_HDMV/PGS

Codec ID/Info               : Picture based subtitle format used on BDs/HD-DVDs

Duration                    : 1 h 54 min

Bit rate                    : 42.3 kb/s

Count of elements           : 3366

Stream size                 : 34.7 MiB (0%)

Title                       : English (SDH)

Language                    : English

Default                     : No

Forced                      : No



Text #2

ID                          : 5

Format                      : PGS

Codec ID                    : S_HDMV/PGS

Codec ID/Info               : Picture based subtitle format used on BDs/HD-DVDs

Duration                    : 1 h 54 min

Bit rate                    : 32.8 kb/s

Count of elements           : 2584

Stream size                 : 26.9 MiB (0%)

Title                       : Portuguese (Brazilian)

Language                    : Portuguese

Default                     : No

Forced                      : No



Text #3

ID                          : 6

Format                      : PGS

Codec ID                    : S_HDMV/PGS

Codec ID/Info               : Picture based subtitle format used on BDs/HD-DVDs

Duration                    : 1 h 54 min

Bit rate                    : 31.7 kb/s

Count of elements           : 2180

Stream size                 : 25.9 MiB (0%)

Title                       : German

Language                    : German

Default                     : No

Forced                      : No



Text #4

ID                          : 7

Format                      : PGS

Codec ID                    : S_HDMV/PGS

Codec ID/Info               : Picture based subtitle format used on BDs/HD-DVDs

Duration                    : 1 h 54 min

Bit rate                    : 34.8 kb/s

Count of elements           : 2584

Stream size                 : 28.6 MiB (0%)

Title                       : French

Language                    : French

Default                     : No

Forced                      : No



Text #5

ID                          : 8

Format                      : PGS

Codec ID                    : S_HDMV/PGS

Codec ID/Info               : Picture based subtitle format used on BDs/HD-DVDs

Duration                    : 1 h 54 min

Bit rate                    : 26.6 kb/s

Count of elements           : 2564

Stream size                 : 21.9 MiB (0%)

Title                       : Chinese (Cantonese)

Language                    : Chinese

Default                     : No

Forced                      : No



Text #6

ID                          : 9

Format                      : PGS

Codec ID                    : S_HDMV/PGS

Codec ID/Info               : Picture based subtitle format used on BDs/HD-DVDs

Duration                    : 1 h 54 min

Bit rate                    : 24.8 kb/s

Count of elements           : 2600

Stream size                 : 20.3 MiB (0%)

Title                       : Korean

Language                    : Korean

Default                     : No

Forced                      : No



Text #7

ID                          : 10

Format                      : PGS

Codec ID                    : S_HDMV/PGS

Codec ID/Info               : Picture based subtitle format used on BDs/HD-DVDs

Duration                    : 1 h 54 min

Bit rate                    : 32.9 kb/s

Count of elements           : 2584

Stream size                 : 27.0 MiB (0%)

Title                       : Spanish (Latin American)

Language                    : Spanish

Default                     : No

Forced                      : No



Text #8

ID                          : 11

Format                      : PGS

Codec ID                    : S_HDMV/PGS

Codec ID/Info               : Picture based subtitle format used on BDs/HD-DVDs

Duration                    : 1 h 54 min

Bit rate                    : 26.2 kb/s

Count of elements           : 2594

Stream size                 : 21.5 MiB (0%)

Title                       : Chinese (Mandarin Traditional)

Language                    : Chinese

Default                     : No

Forced                      : No



Text #9

ID                          : 12

Format                      : PGS

Codec ID                    : S_HDMV/PGS

Codec ID/Info               : Picture based subtitle format used on BDs/HD-DVDs

Duration                    : 1 h 54 min

Bit rate                    : 24.8 kb/s

Count of elements           : 2592

Stream size                 : 20.4 MiB (0%)

Title                       : Thai

Language                    : Thai

Default                     : No

Forced                      : No



Text #10

ID                          : 13

Format                      : PGS

Codec ID                    : S_HDMV/PGS

Codec ID/Info               : Picture based subtitle format used on BDs/HD-DVDs

Duration                    : 1 h 54 min

Bit rate                    : 26.6 kb/s

Count of elements           : 1615

Stream size                 : 21.8 MiB (0%)

Title                       : English (Commentary)

Language                    : English

Default                     : No

Forced                      : No



Text #11

ID                          : 14

Format                      : PGS

Codec ID                    : S_HDMV/PGS

Codec ID/Info               : Picture based subtitle format used on BDs/HD-DVDs

Duration                    : 1 h 54 min

Bit rate                    : 26.4 kb/s

Count of elements           : 1453

Stream size                 : 21.5 MiB (0%)

Title                       : German (Commentary)

Language                    : German

Default                     : No

Forced                      : No



Text #12

ID                          : 15

Format                      : PGS

Codec ID                    : S_HDMV/PGS

Codec ID/Info               : Picture based subtitle format used on BDs/HD-DVDs

Duration                    : 1 h 54 min

Bit rate                    : 23.9 kb/s

Count of elements           : 1441

Stream size                 : 19.5 MiB (0%)

Title                       : French (Commentary)

Language                    : French

Default                     : No

Forced                      : No



Menu

00:00:00.000                : :00:00:00.000

00:04:59.132                : :00:04:59.132

00:06:47.282                : :00:06:47.282

00:08:21.000                : :00:08:21.000

00:11:11.796                : :00:11:11.796

00:15:48.406                : :00:15:48.406

00:18:50.755                : :00:18:50.755

00:20:14.296                : :00:20:14.296

00:22:17.670                : :00:22:17.670

00:24:08.906                : :00:24:08.906

00:26:33.467                : :00:26:33.467

00:33:34.221                : :00:33:34.221

00:35:48.396                : :00:35:48.396

00:40:44.942                : :00:40:44.942

00:46:11.435                : :00:46:11.435

00:52:44.620                : :00:52:44.620

00:56:26.008                : :00:56:26.008

00:59:40.494                : :00:59:40.494

01:04:36.372                : :01:04:36.372

01:11:27.867                : :01:11:27.867

01:14:50.820                : :01:14:50.820

01:19:03.113                : :01:19:03.113

01:21:59.373                : :01:21:59.373

01:24:54.131                : :01:24:54.131

01:27:30.328                : :01:27:30.328

01:33:50.333                : :01:33:50.333

01:37:31.095                : :01:37:31.095

01:40:37.073                : :01:40:37.073

01:44:19.545                : :01:44:19.545

01:46:14.285                : :01:46:14.285

01:48:10.818                : :01:48:10.818

01:52:33.956                : :01:52:33.956



Source Information

General

Complete name               : The.Pink.Panther.1963.BluRay.1080p.DTS-HD.MA.5.1.AVC.REMUX-FraMeSToR.mkv

Format                      : Matroska

Format version              : Version 4

File size                   : 30.7 GiB

Duration                    : 1 h 55 min

Overall bit rate mode       : Variable

Overall bit rate            : 38.2 Mb/s

Encoded date                : UTC 2017-07-13 19:48:35

Writing application         : mkvmerge v9.6.0 ('Slave To Your Mind') 64bit

Writing library             : libebml v1.3.4 + libmatroska v1.4.5



Video

ID                          : 1

Format                      : AVC

Format/Info                 : Advanced Video Codec

Format profile              : [email protected]

Format settings             : CABAC / 4 Ref Frames

Format settings, CABAC      : Yes

Format settings, Reference  : 4 frames

Codec ID                    : V_MPEG4/ISO/AVC

Duration                    : 1 h 55 min

Bit rate mode               : Variable

Bit rate                    : 33.9 Mb/s

Maximum bit rate            : 35.9 Mb/s

Width                       : 1 920 pixels

Height                      : 1 080 pixels

Display aspect ratio        : 16:9

Frame rate mode             : Constant

Frame rate                  : 23.976 (24000/1001) FPS

Color space                 : YUV

Chroma subsampling          : 4:2:0

Bit depth                   : 8 bits

Scan type                   : Progressive

Bits/(Pixel*Frame)          : 0.681

Stream size                 : 27.2 GiB (89%)

Default                     : Yes

Forced                      : No

Color range                 : Limited

Color primaries             : BT.709

Transfer characteristics    : BT.709

Matrix coefficients         : BT.709



Audio #1

ID                          : 2

Format                      : DTS XLL

Format/Info                 : Digital Theater Systems

Commercial name             : DTS-HD Master Audio

Codec ID                    : A_DTS

Duration                    : 1 h 55 min

Bit rate mode               : Variable

Bit rate                    : 3 750 kb/s

Channel(s)                  : 6 channels

Channel layout              : C L R Ls Rs LFE

Sampling rate               : 48.0 kHz

Frame rate                  : 93.750 FPS (512 SPF)

Bit depth                   : 24 bits

Compression mode            : Lossless

Stream size                 : 3.02 GiB (10%)

Language                    : English

Default                     : Yes

Forced                      : No



Audio #2

ID                          : 3

Format                      : AC-3

Format/Info                 : Audio Coding 3

Commercial name             : Dolby Digital

Codec ID                    : A_AC3

Duration                    : 1 h 55 min

Bit rate mode               : Constant

Bit rate                    : 224 kb/s

Channel(s)                  : 2 channels

Channel layout              : L R

Sampling rate               : 48.0 kHz

Frame rate                  : 31.250 FPS (1536 SPF)

Compression mode            : Lossy

Stream size                 : 184 MiB (1%)

Title                       : Commentary By Writer/Director Blake Edwards

Language                    : English

Service kind                : Complete Main

Default                     : No

Forced                      : No



Text #1

ID                          : 4

Format                      : PGS

Codec ID                    : S_HDMV/PGS

Codec ID/Info               : Picture based subtitle format used on BDs/HD-DVDs

Duration                    : 1 h 54 min

Bit rate                    : 42.3 kb/s

Count of elements           : 3366

Stream size                 : 34.7 MiB (0%)

Title                       : English (SDH)

Language                    : English

Default                     : No

Forced                      : No



Text #2

ID                          : 5

Format                      : PGS

Codec ID                    : S_HDMV/PGS

Codec ID/Info               : Picture based subtitle format used on BDs/HD-DVDs

Duration                    : 1 h 54 min

Bit rate                    : 32.8 kb/s

Count of elements           : 2584

Stream size                 : 26.9 MiB (0%)

Title                       : Portuguese (Brazilian)

Language                    : Portuguese

Default                     : No

Forced                      : No



Text #3

ID                          : 6

Format                      : PGS

Codec ID                    : S_HDMV/PGS

Codec ID/Info               : Picture based subtitle format used on BDs/HD-DVDs

Duration                    : 1 h 54 min

Bit rate                    : 31.7 kb/s

Count of elements           : 2180

Stream size                 : 25.9 MiB (0%)

Title                       : German

Language                    : German

Default                     : No

Forced                      : No



Text #4

ID                          : 7

Format                      : PGS

Codec ID                    : S_HDMV/PGS

Codec ID/Info               : Picture based subtitle format used on BDs/HD-DVDs

Duration                    : 1 h 54 min

Bit rate                    : 34.8 kb/s

Count of elements           : 2584

Stream size                 : 28.6 MiB (0%)

Title                       : French

Language                    : French

Default                     : No

Forced                      : No



Text #5

ID                          : 8

Format                      : PGS

Codec ID                    : S_HDMV/PGS

Codec ID/Info               : Picture based subtitle format used on BDs/HD-DVDs

Duration                    : 1 h 54 min

Bit rate                    : 26.6 kb/s

Count of elements           : 2564

Stream size                 : 21.9 MiB (0%)

Title                       : Chinese (Cantonese)

Language                    : Chinese

Default                     : No

Forced                      : No



Text #6

ID                          : 9

Format                      : PGS

Codec ID                    : S_HDMV/PGS

Codec ID/Info               : Picture based subtitle format used on BDs/HD-DVDs

Duration                    : 1 h 54 min

Bit rate                    : 24.8 kb/s

Count of elements           : 2600

Stream size                 : 20.3 MiB (0%)

Title                       : Korean

Language                    : Korean

Default                     : No

Forced                      : No



Text #7

ID                          : 10

Format                      : PGS

Codec ID                    : S_HDMV/PGS

Codec ID/Info               : Picture based subtitle format used on BDs/HD-DVDs

Duration                    : 1 h 54 min

Bit rate                    : 32.9 kb/s

Count of elements           : 2584

Stream size                 : 27.0 MiB (0%)

Title                       : Spanish (Latin American)

Language                    : Spanish

Default                     : No

Forced                      : No



Text #8

ID                          : 11

Format                      : PGS

Codec ID                    : S_HDMV/PGS

Codec ID/Info               : Picture based subtitle format used on BDs/HD-DVDs

Duration                    : 1 h 54 min

Bit rate                    : 26.2 kb/s

Count of elements           : 2594

Stream size                 : 21.5 MiB (0%)

Title                       : Chinese (Mandarin Traditional)

Language                    : Chinese

Default                     : No

Forced                      : No



Text #9

ID                          : 12

Format                      : PGS

Codec ID                    : S_HDMV/PGS

Codec ID/Info               : Picture based subtitle format used on BDs/HD-DVDs

Duration                    : 1 h 54 min

Bit rate                    : 24.8 kb/s

Count of elements           : 2592

Stream size                 : 20.4 MiB (0%)

Title                       : Thai

Language                    : Thai

Default                     : No

Forced                      : No



Text #10

ID                          : 13

Format                      : PGS

Codec ID                    : S_HDMV/PGS

Codec ID/Info               : Picture based subtitle format used on BDs/HD-DVDs

Duration                    : 1 h 54 min

Bit rate                    : 26.6 kb/s

Count of elements           : 1615

Stream size                 : 21.8 MiB (0%)

Title                       : English (Commentary)

Language                    : English

Default                     : No

Forced                      : No



Text #11

ID                          : 14

Format                      : PGS

Codec ID                    : S_HDMV/PGS

Codec ID/Info               : Picture based subtitle format used on BDs/HD-DVDs

Duration                    : 1 h 54 min

Bit rate                    : 26.4 kb/s

Count of elements           : 1453

Stream size                 : 21.5 MiB (0%)

Title                       : German (Commentary)

Language                    : German

Default                     : No

Forced                      : No



Text #12

ID                          : 15

Format                      : PGS

Codec ID                    : S_HDMV/PGS

Codec ID/Info               : Picture based subtitle format used on BDs/HD-DVDs

Duration                    : 1 h 54 min

Bit rate                    : 23.9 kb/s

Count of elements           : 1441

Stream size                 : 19.5 MiB (0%)

Title                       : French (Commentary)

Language                    : French

Default                     : No

Forced                      : No



Menu

00:00:00.000                : en:00:00:00.000

00:04:59.132                : en:00:04:59.132

00:06:47.282                : en:00:06:47.282

00:08:21.000                : en:00:08:21.000

00:11:11.796                : en:00:11:11.796

00:15:48.406                : en:00:15:48.406

00:18:50.755                : en:00:18:50.755

00:20:14.296                : en:00:20:14.296

00:22:17.670                : en:00:22:17.670

00:24:08.906                : en:00:24:08.906

00:26:33.467                : en:00:26:33.467

00:33:34.221                : en:00:33:34.221

00:35:48.396                : en:00:35:48.396

00:40:44.942                : en:00:40:44.942

00:46:11.435                : en:00:46:11.435

00:52:44.620                : en:00:52:44.620

00:56:26.008                : en:00:56:26.008

00:59:40.494                : en:00:59:40.494

01:04:36.372                : en:01:04:36.372

01:11:27.867                : en:01:11:27.867

01:14:50.820                : en:01:14:50.820

01:19:03.113                : en:01:19:03.113

01:21:59.373                : en:01:21:59.373

01:24:54.131                : en:01:24:54.131

01:27:30.328                : en:01:27:30.328

01:33:50.333                : en:01:33:50.333

01:37:31.095                : en:01:37:31.095

01:40:37.073                : en:01:40:37.073

01:44:19.545                : en:01:44:19.545

01:46:14.285                : en:01:46:14.285

01:48:10.818                : en:01:48:10.818

01:52:33.956                : en:01:52:33.956

Discussion

Comments 0

Post Your Comment

Files in this torrent

FILENAMESIZE
The Pink Panther (1963) (1080p BDRip x265 10bit EAC3 5.1 - r0b0t) [TAoE].mkv7.2 GB

Alternative Torrents for 'Pink Panther bit EAC rbt'.

There are no alternative torrents found.