Police Academy 6 City Under Siege (1989) BDRip 1080р [HEVC] 10bit

Torrent Details


Police Academy 6 City Under Siege (1989) BDRip 1080р [HEVC] 10bit

NAME
Police Academy 6 City Under Siege (1989) BDRip 1080р [HEVC] 10bit.torrent
CATEGORY
Movies
INFOHASH
5fc845c73ada5ccf67b73ff6eb5289dd18600877
SIZE
10.3 GB in 0 files
ADDED
Uploaded on 20-07-2020 by our crawler pet called "Spidey".
SWARM
0 seeders & 0 peers
RATING
No votes yet.

Please login to vote for this torrent.


Description

Год выхода: 1989

Страна: США

Студия: Warner Bros.

Жанр: комедия, криминал

Продолжительность: 01:23:56

Перевод: Дублированный, Профессиональный (многоголосый закадровый), Профессиональный (двухголосый, закадровый), Авторские (одноголосые закадровые)



Режиссер: Питер Бонерз

В ролях: Бубба Смит, Дэвид Граф, Майкл Уинслоу, Лесли Истербрук, Мэрион Рэмси, Лэнс Кинси, Мэтт МакКой, Брюс Малер, Дж. У. Бейли, Джордж Гейнс



Описание: Вспышка криминальной активности под кодовым названием «Операция Хаос» может потребовать занавеса для ничего не подозревающего города. Лучшие полицейские специалисты из знаменитой Полицейской Академии взялись за дело.







Качество: BDRip-HEVC 1080p

Видео: HEVC/x.265, 1920x1080, ~16.4 Mb/s

Аудио 1: AC3, 2 ch, 192 Kbps - Русский, дублированный (Варус Видео)

Аудио 2: AC3, 5 ch, 384 Kbps - Русский, MVO (Lazer Video)

Аудио 3: AC3, 2 ch, 192 Kbps - Русский, DVO (НТВ)

Аудио 4: AC3, 2 ch, 192 Kbps - Русский, AVO (Володарский)

Аудио 5: AC3, 1 ch, 192 Kbps - Английский

Субтитры: Русские







Mediainfo

General

Unique ID : 16103008797147771327133251170112783216 (0xC1D53A18B437CA27C550D0DBC164370)

Complete name : H:HEVC-CLUBPolice Academy The Complete Collection (1984-1994) [HEVC]Police Academy 6 City Under Siege (1989) BDRip 1080р [HEVC] 10bit.mkv

Format : Matroska

Format version : Version 4

File size : 10.3 GiB

Duration : 1 h 23 min

Overall bit rate : 17.6 Mb/s

Movie name : Полицейская академия 6: Город в осаде

Encoded date : UTC 2019-06-01 09:50:16

Writing application : mkvmerge v25.0.0 ('Prog Noir') 64-bit

Writing library : libebml v1.3.6 + libmatroska v1.4.9 / Lavf57.71.100

Cover : Yes

Attachments : poster.jpg / Cover.jpg

ACTORS : Бубба Смит, Дэвид Граф,

COUNTRY : США

DATE : 1989

DIRECTOR : Питер Бонерз

ENCODING_INFO : MATROSKA,WEBM > MKV / H264 > X265 CRF 20.0 Пользовательский 2

GENRE : комедия, криминал

HD_VIDEO : 1

Language : und

MEDIA_TYPE : 9

ORIGINAL_TITLE : Police Academy 6: City Under Siege



Video

ID : 1

Format : HEVC

Format/Info : High Efficiency Video Coding

Format profile : Main [email protected]@High

Codec ID : V_MPEGH/ISO/HEVC

Duration : 1 h 23 min

Bit rate : 16.4 Mb/s

Width : 1 920 pixels

Height : 1 080 pixels

Display aspect ratio : 16:9

Frame rate mode : Constant

Frame rate : 23.976 (24000/1001) FPS

Color space : YUV

Chroma subsampling : 4:2:0

Bit depth : 10 bits

Bits/(Pixel*Frame) : 0.330

Stream size : 9.62 GiB (93%)

Title : MPEG-4 AVC, 1920x1080(16:9), 23,976fps, ~26924 Кbps

Writing library : x265 2.9+9-f74003e88622:[Windows][GCC 8.2.0][64 bit] 10bit

Encoding settings : cpuid=1111039 / frame-threads=13 / numa-pools=12 / wpp / no-pmode / no-pme / no-psnr / no-ssim / log-level=3 / input-csp=1 / input-res=1920x1080 / interlace=0 / total-frames=0 / level-idc=41 / high-tier=1 / uhd-bd=0 / ref=5 / allow-non-conformance / no-repeat-headers / annexb / no-aud / no-hrd / info / hash=0 / no-temporal-layers / open-gop / min-keyint=23 / keyint=240 / gop-lookahead=0 / bframes=8 / b-adapt=2 / b-pyramid / bframe-bias=0 / rc-lookahead=60 / lookahead-slices=4 / scenecut=40 / radl=0 / no-intra-refresh / ctu=64 / min-cu-size=8 / rect / amp / max-tu-size=32 / tu-inter-depth=4 / tu-intra-depth=4 / limit-tu=0 / rdoq-level=2 / dynamic-rd=0.00 / no-ssim-rd / signhide / no-tskip / nr-intra=0 / nr-inter=0 / no-constrained-intra / no-strong-intra-smoothing / max-merge=5 / limit-refs=2 / limit-modes / me=3 / subme=7 / merange=57 / temporal-mvp / weightp / weightb / no-analyze-src-pics / deblock=-3:-3 / no-sao / no-sao-non-deblock / rd=6 / no-early-skip / rskip / no-fast-intra / no-tskip-fast / no-cu-lossless / b-intra / no-splitrd-skip / rdpenalty=0 / psy-rd=2.00 / psy-rdoq=1.00 / no-rd-refine / no-lossless / cbqpoffs=0 / crqpoffs=0 / rc=crf / crf=20.0 / qcomp=0.70 / qpstep=4 / stats-write=0 / stats-read=0 / vbv-maxrate=50000 / vbv-bufsize=50000 / vbv-init=0.9 / crf-max=0.0 / crf-min=0.0 / ipratio=1.40 / pbratio=1.30 / aq-mode=2 / aq-strength=1.00 / no-cutree / zone-count=0 / no-strict-cbr / qg-size=32 / no-rc-grain / qpmax=69 / qpmin=0 / no-const-vbv / sar=1 / overscan=0 / videoformat=5 / range=0 / colorprim=1 / transfer=1 / colormatrix=1 / chromaloc=0 / display-window=0 / max-cll=0,0 / min-luma=0 / max-luma=1023 / log2-max-poc-lsb=8 / vui-timing-info / vui-hrd-info / slices=1 / no-opt-qp-pps / no-opt-ref-list-length-pps / no-multi-pass-opt-rps / scenecut-bias=0.05 / no-opt-cu-delta-qp / aq-motion / no-hdr / no-hdr-opt / no-dhdr10-opt / no-idr-recovery-sei / analysis-reuse-level=5 / scale-factor=0 / refine-intra=0 / refine-inter=0 / refine-mv=0 / no-limit-sao / ctu-info=0 / no-lowpass-dct / refine-mv-type=0 / copy-pic=1 / max-ausize-factor=1.0 / no-dynamic-refine / no-single-sei

Language : English

Default : Yes

Forced : No

Color range : Limited

Color primaries : BT.709

Transfer characteristics : BT.709

Matrix coefficients : BT.709



Audio #1

ID : 2

Format : AC-3

Format/Info : Audio Coding 3

Commercial name : Dolby Digital

Codec ID : A_AC3

Duration : 1 h 23 min

Bit rate mode : Constant

Bit rate : 192 kb/s

Channel(s) : 2 channels

Channel layout : L R

Sampling rate : 48.0 kHz

Frame rate : 31.250 FPS (1536 SPF)

Bit depth : 16 bits

Compression mode : Lossy

Stream size : 115 MiB (1%)

Title : DUB Russian, AC3, 2ch, 48 kHz, 192 kbps, (Дубляж - Варус Видео)

Language : Russian

Service kind : Complete Main

Default : Yes

Forced : No



Audio #2

ID : 3

Format : AC-3

Format/Info : Audio Coding 3

Commercial name : Dolby Digital

Codec ID : A_AC3

Duration : 1 h 23 min

Bit rate mode : Constant

Bit rate : 384 kb/s

Channel(s) : 5 channels

Channel layout : L R C Ls Rs

Sampling rate : 48.0 kHz

Frame rate : 31.250 FPS (1536 SPF)

Bit depth : 16 bits

Compression mode : Lossy

Stream size : 231 MiB (2%)

Title : MVO Russian, AC3, 5ch, 48 kHz, 384 kbps, (Многоголосый - Lazer Video)

Language : Russian

Service kind : Complete Main

Default : No

Forced : No



Audio #3

ID : 4

Format : AC-3

Format/Info : Audio Coding 3

Commercial name : Dolby Digital

Codec ID : A_AC3

Duration : 1 h 23 min

Bit rate mode : Constant

Bit rate : 192 kb/s

Channel(s) : 2 channels

Channel layout : L R

Sampling rate : 48.0 kHz

Frame rate : 31.250 FPS (1536 SPF)

Bit depth : 16 bits

Compression mode : Lossy

Stream size : 115 MiB (1%)

Title : DVO Russian, AC3, 2ch, 48 kHz, 192 kbps, (Двухголосый - НТВ)

Language : Russian

Service kind : Complete Main

Default : No

Forced : No



Audio #4

ID : 5

Format : AC-3

Format/Info : Audio Coding 3

Commercial name : Dolby Digital

Codec ID : A_AC3

Duration : 1 h 23 min

Bit rate mode : Constant

Bit rate : 192 kb/s

Channel(s) : 2 channels

Channel layout : L R

Sampling rate : 48.0 kHz

Frame rate : 31.250 FPS (1536 SPF)

Bit depth : 16 bits

Compression mode : Lossy

Stream size : 115 MiB (1%)

Title : AVO Russian, AC3, 2ch, 48 kHz, 192 kbps, (Одноголосый - Володарский)

Language : Russian

Service kind : Complete Main

Default : No

Forced : No



Audio #5

ID : 6

Format : AC-3

Format/Info : Audio Coding 3

Commercial name : Dolby Digital

Codec ID : A_AC3

Duration : 1 h 23 min

Bit rate mode : Constant

Bit rate : 192 kb/s

Channel(s) : 1 channel

Channel layout : C

Sampling rate : 48.0 kHz

Frame rate : 31.250 FPS (1536 SPF)

Bit depth : 16 bits

Compression mode : Lossy

Stream size : 115 MiB (1%)

Title : eng

Service kind : Complete Main

Default : No

Forced : No



Text

ID : 7

Format : UTF-8

Codec ID : S_TEXT/UTF8

Codec ID/Info : UTF-8 Plain Text

Duration : 1 h 20 min

Bit rate : 81 b/s

Count of elements : 819

Stream size : 48.0 KiB (0%)

Default : Yes

Forced : No



Menu

00:00:00.000 : :Глава 1

00:04:27.892 : :Глава 2

00:06:34.727 : :Глава 3

00:11:29.605 : :Глава 4

00:14:56.645 : :Глава 5

00:18:09.963 : :Глава 6

00:20:14.713 : :Глава 7

00:22:20.964 : :Глава 8

00:24:48.445 : :Глава 9

00:29:41.780 : :Глава 10

00:32:51.594 : :Глава 11

00:36:16.048 : :Глава 12

00:39:49.011 : :Глава 13

00:43:02.663 : :Глава 14

00:46:45.552 : :Глава 15

00:50:02.082 : :Глава 16

00:54:15.085 : :Глава 17

00:56:26.925 : :Глава 18

01:04:36.664 : :Глава 19

01:08:44.203 : :Глава 20

01:15:37.658 : :Глава 21

01:20:52.222 : :Глава 22

01:23:50.025 : :Глава 23





Скриншоты



Релиз от: HANNIBAL

Discussion

Comments 0

Post Your Comment

Torrent Files (Unavailable)

Please check back later to get a list of all files included in this torrent.

Alternative Torrents for 'Police Academy City Under Siege р HEVC bit'.

There are no alternative torrents found.