Last Week Tonight With John Oliver S07E18 WEB H264 TRUMP ETRG

Torrent Details

Last Week Tonight with John Oliver S07E18 WEB h264 TRUMP ETRG

NAME
Last Week Tonight with John Oliver S07E18 WEB h264 TRUMP ETRG.torrent
CATEGORY
Television
INFOHASH
d3a27a61bf76e63a395c5a7c9ae97e2988533828
SIZE
437 MB in 7 files
ADDED
Uploaded on 20-07-2020 by our crawler pet called "Spidey".
SWARM
0 seeders & 0 peers
RATING
No votes yet.

Please login to vote for this torrent.


Description



https://www.imdb.com/title/tt3530232/



Video

ID                                       : 1

Format                                   : AVC

Format/Info                              : Advanced Video Codec

Format profile                           : [email protected]

Format settings                          : CABAC / 4 Ref Frames

Format settings, CABAC                   : Yes

Format settings, Reference frames        : 4 frames

Codec ID                                 : V_MPEG4/ISO/AVC

Duration                                 : 30 min 7 s

Bit rate mode                            : Variable

Bit rate                                 : 1 891 kb/s

Maximum bit rate                         : 2 700 kb/s

Width                                    : 960 pixels

Height                                   : 540 pixels

Display aspect ratio                     : 16:9

Frame rate mode                          : Constant

Frame rate                               : 29.970 (30000/1001) FPS

Color space                              : YUV

Chroma subsampling                       : 4:2:0

Bit depth                                : 8 bits

Scan type                                : Progressive

Bits/(Pixel*Frame)                       : 0.122

Stream size                              : 408 MiB (94%)

Language                                 : English

Default                                  : Yes

Forced                                   : No



Audio

ID                                       : 2

Format                                   : AAC LC

Format/Info                              : Advanced Audio Codec Low Complexity

Codec ID                                 : A_AAC-2

Duration                                 : 30 min 7 s

Bit rate                                 : 125 kb/s

Channel(s)                               : 2 channels

Channel layout                           : L R

Sampling rate                            : 48.0 kHz

Frame rate                               : 46.875 FPS (1024 SPF)

Compression mode                         : Lossy

Stream size                              : 27.0 MiB (6%)

Language                                 : English

Default                                  : Yes

Forced                                   : No



Text

ID                                       : 3

Format                                   : UTF-8

Codec ID                                 : S_TEXT/UTF8

Codec ID/Info                            : UTF-8 Plain Text

Duration                                 : 29 min 47 s

Bit rate                                 : 129 b/s

Count of elements                        : 1150

Stream size                              : 28.2 KiB (0%)

Title                                    : English (SDH)

Language                                 : English

Default                                  : No

Forced                                   : No

Discussion

Comments 0

Post Your Comment

Files in this torrent

FILENAMESIZE
Downloaded from ETTV.txt55 B
Last Week Tonight with John Oliver.txt2.9 KB
last.week.tonight.with.john.oliver.s07e18.web.h264-trump.mkv435.3 MB
Screens/screen0001.png502.3 KB
Screens/screen0002.png413.3 KB
Screens/screen0003.png462.4 KB
Screens/screen0004.png460.1 KB

Alternative Torrents for 'Last Week Tonight with John Oliver TRUMP ETRG'.

TORRENT NAMEADDEDSIZESEEDSPEERSHEALTH
7/20/2020437 MB00