Rocky Complete Collection Set (1976-2006) 1080p BluRay X264 MSub By~Hammer~

Torrent Details

Rocky Complete Collection Set (1976-2006) 1080p BluRay x264   MSub By~Hammer~

NAME
Rocky Complete Collection Set (1976-2006) 1080p BluRay x264 MSub By~Hammer~.torrent
CATEGORY
Movies
INFOHASH
0615187bf033e5b046633236714507ed3ae76676
SIZE
30.8 GB in 6 files
ADDED
Uploaded on 20-07-2020 by our crawler pet called "Spidey".
SWARM
0 seeders & 0 peers
RATING
No votes yet.

Please login to vote for this torrent.


Description

Rocky Complete Collection Set (1976-2006) 1080p BluRay x264 {Dual Audio} {Hindi-English} Exclusive By~Hammer~





Stay Home Stay Safe From Coronavirus

Note:-Enjoy Quality Hindi Audio 1st To 5th Part HDTV DD 2.0 384 Kbps & 6th Part DVD 5.1 448 Kbps Hindi Audio Exclusive By~Hammer~

Rocky (1976) 1080p BluRay x264 {Dual Audio} {Hindi HDTV DD 2.0-Eng DTS 5.1} ESub By~Hammer~

General
Format                                   : Matroska
Format version                           : Version 4 / Version 2
File size                                : 5.78 GiB
Duration                                 : 1 h 59 min
Overall bit rate                         : 6 908 kb/s
Movie name                               : Rocky (1976) 1080p BluRay x264 {Dual Audio} {Hindi HDTV DD 2.0-Eng DTS 5.1} ESub By~Hammer~
Bit rate                                 : 5 000 kb/s
Width                                    : 1 920 pixels
Height                                   : 1 038 pixels
Display aspect ratio                     : 1.85:1
Frame rate mode                          : Constant
Frame rate                               : 23.976 (24000/1001) FPS
Title                                    : ~EncodeR~Hammer~
Language                                 : English
Default                                  : Yes
Forced                                   : No

Audio #1
Format                                   : AC-3
Format/Info                              : Audio Coding 3
Codec ID                                 : A_AC3
Duration                                 : 1 h 59 min
Bit rate mode                            : Constant
Bit rate                                 : 384 kb/s
Channel(s)                               : 2 channels
Channel positions                        : Front: L R
Sampling rate                            : 48.0 kHz
Frame rate                               : 31.250 FPS (1536 SPF)
Bit depth                                : 16 bits
Compression mode                         : Lossy
Stream size                              : 329 MiB (6%)
Title                                    : Hindi HDTV DD 2.0 384 kbps By~Hammer~
Language                                 : Hindi
Default                                  : Yes
Forced                                   : Yes

Audio #2
Format                                   : DTS
Format/Info                              : Digital Theater Systems
Codec ID                                 : A_DTS
Duration                                 : 1 h 59 min
Bit rate mode                            : Constant
Bit rate                                 : 1 509 kb/s
Channel(s)                               : 6 channels
Channel positions                        : Front: L C R, Side: L R, LFE
Sampling rate                            : 48.0 kHz
Frame rate                               : 93.750 FPS (512 SPF)
Bit depth                                : 24 bits
Compression mode                         : Lossy
Stream size                              : 1.26 GiB (22%)
Title                                    : English DTS 5.1 1509 kbps By~Hammer~
Language                                 : English
Default                                  : No
Forced                                   : No

Text
Format                                   : PGS
Muxing mode                              : zlib
Codec ID                                 : S_HDMV/PGS
Codec ID/Info                            : Picture based subtitle format used on BDs/HD-DVDs
Duration                                 : 1 h 56 min
Bit rate                                 : 13.7 kb/s
Count of elements                        : 3390
Stream size                              : 11.4 MiB (0%)
Title                                    : English PGS
Language                                 : English
Default                                  : Yes
Forced                                   : No






Rocky II (1979) 1080p BluRay x264 {Dual Audio} {Hindi HDTV DD 2.0-Eng DTS 5.1} ESub By~Hammer~

General
Format                                   : Matroska
Format version                           : Version 4 / Version 2
File size                                : 5.76 GiB
Duration                                 : 1 h 59 min
Overall bit rate                         : 6 921 kb/s
Movie name                               : Rocky II (1979) 1080p BluRay x264 {Dual Audio} {Hindi HDTV DD 2.0-Eng DTS 5.1} ESub By~Hammer~
Bit rate                                 : 5 000 kb/s
Width                                    : 1 920 pixels
Height                                   : 1 040 pixels
Display aspect ratio                     : 1.85:1
Frame rate mode                          : Constant
Frame rate                               : 23.976 (24000/1001) FPS
Title                                    : ~EncodeR~Hammer~
Language                                 : English
Default                                  : Yes
Forced                                   : No

Audio #1
Format                                   : AC-3
Format/Info                              : Audio Coding 3
Codec ID                                 : A_AC3
Duration                                 : 1 h 59 min
Bit rate mode                            : Constant
Bit rate                                 : 384 kb/s
Channel(s)                               : 2 channels
Channel positions                        : Front: L R
Sampling rate                            : 48.0 kHz
Frame rate                               : 31.250 FPS (1536 SPF)
Bit depth                                : 16 bits
Compression mode                         : Lossy
Stream size                              : 327 MiB (6%)
Title                                    : Hindi HDTV DD 2.0 384 kbps By~Hammer~
Language                                 : Hindi
Default                                  : Yes
Forced                                   : Yes

Audio #2
Format                                   : DTS
Format/Info                              : Digital Theater Systems
Codec ID                                 : A_DTS
Duration                                 : 1 h 59 min
Bit rate mode                            : Constant
Bit rate                                 : 1 509 kb/s
Channel(s)                               : 6 channels
Channel positions                        : Front: L C R, Side: L R, LFE
Sampling rate                            : 48.0 kHz
Frame rate                               : 93.750 FPS (512 SPF)
Bit depth                                : 24 bits
Compression mode                         : Lossy
Stream size                              : 1.26 GiB (22%)
Title                                    : English DTS 5.1 1509 kbps By~Hammer~
Language                                 : English
Default                                  : No
Forced                                   : No

Text #1
Format                                   : PGS
Muxing mode                              : zlib
Codec ID                                 : S_HDMV/PGS
Codec ID/Info                            : Picture based subtitle format used on BDs/HD-DVDs
Duration                                 : 1 h 55 min
Bit rate                                 : 10.9 kb/s
Count of elements                        : 3270
Stream size                              : 8.97 MiB (0%)
Title                                    : Hindi PGS
Language                                 : Hindi
Default                                  : Yes
Forced                                   : No

Text #2
Format                                   : PGS
Muxing mode                              : zlib
Codec ID                                 : S_HDMV/PGS
Codec ID/Info                            : Picture based subtitle format used on BDs/HD-DVDs
Duration                                 : 1 h 55 min
Bit rate                                 : 15.9 kb/s
Count of elements                        : 3878
Stream size                              : 13.1 MiB (0%)
Title                                    : English PGS
Language                                 : English
Default                                  : No
Forced                                   : No






Rocky III (1982) 1080p BluRay x264 {Dual Audio} {Hindi HDTV DD 2.0-Eng DTS 5.1} ESub By~Hammer~

General
Format                                   : Matroska
Format version                           : Version 4 / Version 2
File size                                : 4.81 GiB
Duration                                 : 1 h 39 min
Overall bit rate                         : 6 912 kb/s
Movie name                               : Rocky III (1982) 1080p BluRay x264 {Dual Audio} {Hindi HDTV DD 2.0-Eng DTS 5.1} ESub By~Hammer~
Bit rate                                 : 5 000 kb/s
Width                                    : 1 920 pixels
Height                                   : 1 040 pixels
Display aspect ratio                     : 1.85:1
Frame rate mode                          : Constant
Frame rate                               : 23.976 (24000/1001) FPS
Title                                    : ~EncodeR~Hammer~
Language                                 : English
Default                                  : Yes
Forced                                   : No

Audio #1
Format                                   : AC-3
Format/Info                              : Audio Coding 3
Codec ID                                 : A_AC3
Duration                                 : 1 h 39 min
Bit rate mode                            : Constant
Bit rate                                 : 384 kb/s
Channel(s)                               : 2 channels
Channel positions                        : Front: L R
Sampling rate                            : 48.0 kHz
Frame rate                               : 31.250 FPS (1536 SPF)
Bit depth                                : 16 bits
Compression mode                         : Lossy
Stream size                              : 274 MiB (6%)
Title                                    : Hindi HDTV DD 2.0 384 kbps By~Hammer~
Language                                 : Hindi
Default                                  : Yes
Forced                                   : Yes

Audio #2
Format                                   : DTS
Format/Info                              : Digital Theater Systems
Codec ID                                 : A_DTS
Duration                                 : 1 h 39 min
Bit rate mode                            : Constant
Bit rate                                 : 1 509 kb/s
Channel(s)                               : 6 channels
Channel positions                        : Front: L C R, Side: L R, LFE
Sampling rate                            : 48.0 kHz
Frame rate                               : 93.750 FPS (512 SPF)
Bit depth                                : 24 bits
Compression mode                         : Lossy
Stream size                              : 1.05 GiB (22%)
Title                                    : English DTS 5.1 1509 kbps By~Hammer~
Language                                 : English
Default                                  : No
Forced                                   : No

Text
Format                                   : PGS
Muxing mode                              : zlib
Codec ID                                 : S_HDMV/PGS
Codec ID/Info                            : Picture based subtitle format used on BDs/HD-DVDs
Duration                                 : 1 h 38 min
Bit rate                                 : 17.6 kb/s
Count of elements                        : 3784
Stream size                              : 12.4 MiB (0%)
Title                                    : English PGS
Language                                 : English
Default                                  : Yes
Forced                                   : No






Rocky IV (1985) 1080p BluRay x264 {Dual Audio} {Hindi HDTV DD 2.0-Eng DTS 5.1} MSub By~Hammer~

General
Format                                   : Matroska
Format version                           : Version 4 / Version 2
File size                                : 4.42 GiB
Duration                                 : 1 h 31 min
Overall bit rate                         : 6 913 kb/s
Movie name                               : Rocky IV (1985) 1080p BluRay x264 {Dual Audio} {Hindi HDTV DD 2.0-Eng DTS 5.1} MSub By~Hammer~
Bit rate                                 : 5 000 kb/s
Width                                    : 1 920 pixels
Height                                   : 1 040 pixels
Display aspect ratio                     : 1.85:1
Frame rate mode                          : Constant
Frame rate                               : 23.976 (24000/1001) FPS
Title                                    : ~EncodeR~Hammer~
Language                                 : English
Default                                  : Yes
Forced                                   : No

Audio #1
Format                                   : AC-3
Format/Info                              : Audio Coding 3
Codec ID                                 : A_AC3
Duration                                 : 1 h 31 min
Bit rate mode                            : Constant
Bit rate                                 : 384 kb/s
Channel(s)                               : 2 channels
Channel positions                        : Front: L R
Sampling rate                            : 48.0 kHz
Frame rate                               : 31.250 FPS (1536 SPF)
Bit depth                                : 16 bits
Compression mode                         : Lossy
Stream size                              : 251 MiB (6%)
Title                                    : Hindi HDTV DD 2.0 384 kbps By~Hammer~
Language                                 : Hindi
Default                                  : Yes
Forced                                   : Yes

Audio #2
Format                                   : DTS
Format/Info                              : Digital Theater Systems
Codec ID                                 : A_DTS
Duration                                 : 1 h 31 min
Bit rate mode                            : Constant
Bit rate                                 : 1 509 kb/s
Channel(s)                               : 6 channels
Channel positions                        : Front: L C R, Side: L R, LFE
Sampling rate                            : 48.0 kHz
Frame rate                               : 93.750 FPS (512 SPF)
Bit depth                                : 24 bits
Compression mode                         : Lossy
Stream size                              : 988 MiB (22%)
Title                                    : English DTS 5.1 1509 kbps By~Hammer~
Language                                 : English
Default                                  : No
Forced                                   : No

Text #1
Format                                   : PGS
Muxing mode                              : zlib
Codec ID                                 : S_HDMV/PGS
Codec ID/Info                            : Picture based subtitle format used on BDs/HD-DVDs
Duration                                 : 1 h 30 min
Bit rate                                 : 7 349 b/s
Count of elements                        : 1960
Stream size                              : 4.77 MiB (0%)
Title                                    : Hindi PGS
Language                                 : Hindi
Default                                  : Yes
Forced                                   : No

Text #2
Format                                   : PGS
Muxing mode                              : zlib
Codec ID                                 : S_HDMV/PGS
Codec ID/Info                            : Picture based subtitle format used on BDs/HD-DVDs
Duration                                 : 1 h 29 min
Bit rate                                 : 14.3 kb/s
Count of elements                        : 2904
Stream size                              : 9.15 MiB (0%)
Title                                    : English PGS
Language                                 : English
Default                                  : No
Forced                                   : No






Rocky V (1990) 1080p BluRay x264 {Dual Audio} {Hindi HDTV DD 2.0-Eng DTS 5.1} MSub By~Hammer~

General
Format version                           : Version 4 / Version 2
File size                                : 5.04 GiB
Duration                                 : 1 h 44 min
Overall bit rate                         : 6 925 kb/s
Movie name                               : Rocky V (1990) 1080p BluRay x264 {Dual Audio} {Hindi HDTV DD 2.0-Eng DTS 5.1} MSub By~Hammer~
Bit rate                                 : 5 000 kb/s
Width                                    : 1 920 pixels
Height                                   : 1 038 pixels
Display aspect ratio                     : 1.85:1
Frame rate mode                          : Constant
Frame rate                               : 23.976 (24000/1001) FPS
Title                                    : ~EncodeR~Hammer~
Language                                 : English
Default                                  : Yes
Forced                                   : No

Audio #1
Format                                   : AC-3
Format/Info                              : Audio Coding 3
Codec ID                                 : A_AC3
Duration                                 : 1 h 44 min
Bit rate mode                            : Constant
Bit rate                                 : 384 kb/s
Channel(s)                               : 2 channels
Channel positions                        : Front: L R
Sampling rate                            : 48.0 kHz
Frame rate                               : 31.250 FPS (1536 SPF)
Bit depth                                : 16 bits
Compression mode                         : Lossy
Stream size                              : 286 MiB (6%)
Title                                    : Hindi HDTV DD 2.0 384 kbps By~Hammer~
Language                                 : Hindi
Default                                  : Yes
Forced                                   : Yes

Audio #2
Format                                   : DTS
Format/Info                              : Digital Theater Systems
Codec ID                                 : A_DTS
Duration                                 : 1 h 44 min
Bit rate mode                            : Constant
Bit rate                                 : 1 509 kb/s
Channel(s)                               : 6 channels
Channel positions                        : Front: L C R, Side: L R, LFE
Sampling rate                            : 48.0 kHz
Frame rate                               : 93.750 FPS (512 SPF)
Bit depth                                : 24 bits
Compression mode                         : Lossy
Stream size                              : 1.10 GiB (22%)
Title                                    : English DTS 5.1 1509 kbps By~Hammer~
Language                                 : English
Default                                  : No
Forced                                   : No

Text #1
Format                                   : PGS
Muxing mode                              : zlib
Codec ID                                 : S_HDMV/PGS
Codec ID/Info                            : Picture based subtitle format used on BDs/HD-DVDs
Duration                                 : 1 h 43 min
Bit rate                                 : 10.1 kb/s
Count of elements                        : 3448
Stream size                              : 7.49 MiB (0%)
Title                                    : Hindi PGS
Language                                 : Hindi
Default                                  : Yes
Forced                                   : No

Text #2
Format                                   : PGS
Muxing mode                              : zlib
Codec ID                                 : S_HDMV/PGS
Codec ID/Info                            : Picture based subtitle format used on BDs/HD-DVDs
Duration                                 : 1 h 43 min
Bit rate                                 : 20.6 kb/s
Count of elements                        : 4724
Stream size                              : 15.2 MiB (0%)
Title                                    : English PGS
Language                                 : English
Default                                  : No
Forced                                   : No






Rocky Balboa (2006) 1080p BluRay x264 {Dual Audio} {Hindi DD 5.1-Eng DTS 5.1} ESub By~Hammer~

General
Format                                   : Matroska
Format version                           : Version 4 / Version 2
File size                                : 4.97 GiB
Duration                                 : 1 h 41 min
Overall bit rate                         : 6 997 kb/s
Movie name                               : Rocky Balboa (2006) 1080p BluRay x264 {Dual Audio} {Hindi DD 5.1-Eng DTS 5.1} ESub By~Hammer~
Bit rate                                 : 5 000 kb/s
Width                                    : 1 920 pixels
Height                                   : 1 040 pixels
Display aspect ratio                     : 1.85:1
Frame rate mode                          : Constant
Frame rate                               : 23.976 (24000/1001) FPS
Title                                    : ~EncodeR~Hammer~
Language                                 : English
Default                                  : Yes
Forced                                   : No

Audio #1
Format                                   : AC-3
Format/Info                              : Audio Coding 3
Codec ID                                 : A_AC3
Duration                                 : 1 h 41 min
Bit rate mode                            : Constant
Bit rate                                 : 448 kb/s
Channel(s)                               : 6 channels
Channel positions                        : Front: L C R, Side: L R, LFE
Sampling rate                            : 48.0 kHz
Frame rate                               : 31.250 FPS (1536 SPF)
Bit depth                                : 16 bits
Compression mode                         : Lossy
Stream size                              : 326 MiB (6%)
Title                                    : Hindi Org DD 5.1 448 kbps By~Hammer~
Language                                 : Hindi
Default                                  : Yes
Forced                                   : Yes

Audio #2
Format                                   : DTS
Format/Info                              : Digital Theater Systems
Codec ID                                 : A_DTS
Duration                                 : 1 h 41 min
Bit rate mode                            : Constant
Bit rate                                 : 1 509 kb/s
Channel(s)                               : 6 channels
Channel positions                        : Front: L C R, Side: L R, LFE
Sampling rate                            : 48.0 kHz
Frame rate                               : 93.750 FPS (512 SPF)
Bit depth                                : 24 bits
Compression mode                         : Lossy
Stream size                              : 1.07 GiB (22%)
Title                                    : English DTS 5.1 1509 kbps By~Hammer~
Language                                 : English
Default                                  : No
Forced                                   : No

Text #1
Format                                   : PGS
Muxing mode                              : zlib
Codec ID                                 : S_HDMV/PGS
Codec ID/Info                            : Picture based subtitle format used on BDs/HD-DVDs
Duration                                 : 1 h 34 min
Bit rate                                 : 22.8 kb/s
Count of elements                        : 2656
Stream size                              : 15.4 MiB (0%)
Title                                    : English PGS
Language                                 : English
Default                                  : Yes
Forced                                   : No

Text #2
Format                                   : PGS
Muxing mode                              : zlib
Codec ID                                 : S_HDMV/PGS
Codec ID/Info                            : Picture based subtitle format used on BDs/HD-DVDs
Duration                                 : 1 h 38 min
Bit rate                                 : 17.9 kb/s
Count of elements                        : 2942
Stream size                              : 12.7 MiB (0%)
Title                                    : English PGS
Language                                 : English
Default                                  : No
Forced                                   : No







Discussion

Comments 0

Post Your Comment

Files in this torrent

FILENAMESIZE
Rocky (1976) 1080p BluRay x264 {Dual Audio} {Hindi HDTV DD 2.0-Eng DTS 5.1} ESub By~Hammer~.mkv5.8 GB
Rocky Balboa (2006) 1080p BluRay x264 {Dual Audio} {Hindi DD 5.1-Eng DTS 5.1} ESub By~Hammer~.mkv5 GB
Rocky II (1979) 1080p BluRay x264 {Dual Audio} {Hindi HDTV DD 2.0-Eng DTS 5.1} ESub By~Hammer~.mkv5.8 GB
Rocky III (1982) 1080p BluRay x264 {Dual Audio} {Hindi HDTV DD 2.0-Eng DTS 5.1} ESub By~Hammer~.mkv4.8 GB
Rocky IV (1985) 1080p BluRay x264 {Dual Audio} {Hindi HDTV DD 2.0-Eng DTS 5.1} MSub By~Hammer~.mkv4.4 GB
Rocky V (1990) 1080p BluRay x264 {Dual Audio} {Hindi HDTV DD 2.0-Eng DTS 5.1} MSub By~Hammer~.mkv5 GB

Alternative Torrents for 'Rocky Complete Collection Set BluRay MSub ByHammer'.

There are no alternative torrents found.