Wolfhound (2006) 720p Uncut BRRip Dual Audio [ Hin + Rus ] Eng Sub

Torrent Details

Wolfhound (2006) 720p Uncut BRRip Dual Audio [ Hin + Rus ] Eng Sub

NAME
Wolfhound (2006) 720p Uncut BRRip Dual Audio [ Hin + Rus ] Eng Sub.torrent
CATEGORY
Movies
INFOHASH
e36f265ff6f342c95953f20f14d28c6447e6759e
SIZE
1.2 GB in 1 file
ADDED
Uploaded on 20-07-2020 by our crawler pet called "Spidey".
SWARM
0 seeders & 0 peers
RATING
No votes yet.

Please login to vote for this torrent.


Description

Wolfhound (2006)
Volkodav iz roda Serykh Psov (original title)
Action, Adventure, Fantasy | 28 December 2006 (USA)

He was doomed to die, but managed to survive, and now his mission is to revenge for the annihilation of his tribe.
He is the great warrior who calls himself Volkodav.

Director: Nikolay Lebedev
Writers: Nikolay Lebedev, Mariya Semyonova (novel)
Stars: Aleksandr Bukharov, Oksana Akinshina, Igor Petrenko.

Format : Matroska
Format version : Version 4
File size : 1.18 GiB
Duration : 2 h 23 min
Overall bit rate : 1 182 kb/s

Video
ID : 1
Format : AVC
Format/Info : Advanced Video Codec
Format profile : [email protected]
Format settings : CABAC / 5 Ref Frames
Format settings, CABAC : Yes
Format settings, Reference frames : 5 frames
Codec ID : V_MPEG4/ISO/AVC
Duration : 2 h 23 min
Bit rate : 931 kb/s
Width : 1 280 pixels
Height : 544 pixels
Display aspect ratio : 2.35:1
Frame rate mode : Constant
Frame rate : 23.976 (24000/1001) FPS
Color space : YUV
Chroma subsampling : 4:2:0
Bit depth : 8 bits
Scan type : Progressive
Bits/(Pixel*Frame) : 0.056
Stream size : 953 MiB (79%)

Audio #1
ID : 2
Format : AAC LC
Format/Info : Advanced Audio Codec Low Complexity
Codec ID : A_AAC-2
Duration : 2 h 21 min
Bit rate : 126 kb/s
Channel(s) : 2 channels
Channel layout : L R
Sampling rate : 44.1 kHz
Frame rate : 43.066 FPS (1024 SPF)
Compression mode : Lossy
Stream size : 127 MiB (11%)
Language : Hindi
Default : No
Forced : No

Audio #2
ID : 3
Format : AAC LC
Format/Info : Advanced Audio Codec Low Complexity
Codec ID : A_AAC-2
Duration : 2 h 21 min
Bit rate : 126 kb/s
Channel(s) : 2 channels
Channel layout : L R
Sampling rate : 44.1 kHz
Frame rate : 43.066 FPS (1024 SPF)
Compression mode : Lossy
Stream size : 127 MiB (11%)
Default : No
Forced : No

Text #1
ID : 4
Format : UTF-8
Codec ID : S_TEXT/UTF8
Codec ID/Info : UTF-8 Plain Text
Duration : 2 h 13 min
Bit rate : 50 b/s
Count of elements : 731
Stream size : 49.8 KiB (0%)
Language : Hindi
Default : Yes
Forced : No

Text #2
ID : 5
Format : UTF-8
Codec ID : S_TEXT/UTF8
Codec ID/Info : UTF-8 Plain Text
Duration : 2 h 13 min
Bit rate : 19 b/s
Count of elements : 731
Stream size : 19.1 KiB (0%)
Language : English
Default : No
Forced : No

Discussion

Comments 0

Post Your Comment

Files in this torrent

FILENAMESIZE
Wolfhound (2006) 720p Uncut BRRip Dual Audio [ Hin + Rus ] Eng Sub.mkv1.2 GB

Alternative Torrents for 'Wolfhound Uncut Dual Audio Hin Rus Eng Sub'.

TORRENT NAMEADDEDSIZESEEDSPEERSHEALTH
7/20/20201.2 GB00