Список Эдриана Мессенджера 1963 BDRip 1080p Msltel

Torrent Details


Список Эдриана Мессенджера 1963 BDRip 1080p msltel

NAME
Список Эдриана Мессенджера 1963 BDRip 1080p msltel.torrent
CATEGORY
Movies
INFOHASH
be8805384e430394929a208a8e21f7c544dd90ae
SIZE
11.1 GB in 0 files
ADDED
Uploaded on 20-07-2020 by our crawler pet called "Spidey".
SWARM
0 seeders & 0 peers
RATING
No votes yet.

Please login to vote for this torrent.


Description

Название: Список Эдриана Мессенджера

Оригинальное название: The List of Adrian Messenger

Год выпуска: 1963

Страна: США

Жанр: детектив, триллер

Продолжительность: 01:38:05

Перевод: профессиональный многоголосый

Режиссер: Джон Хьюстон

В ролях: Тони Кёртис, Кирк Дуглас, Бёрт Ланкастер, Роберт Митчэм, Фрэнк Синатра, Джордж К. Скотт, Дана Уинтер, Клайв Брук, Глэдис Купер, Херберт Маршалл, Джон Меривэйл, Марсель Далио, Бернард Арчард, Тони Хьюстон, Рональд Лонг, Джимми Чартерс, Тим Дюран, Пэтти Элдер, Бернард Фокс, Делфи Лоуренс, Мона Лилиан, Джо Линч, Стэйси Морган, Барбара Моррисон, Дженнифер Рэйне, Анна Ван Дер Хайди



О фильме: Энтони Гетрин, британский полковник в отставке, получает от своего друга Адриана Мессенджера список из 10 имён с просьбой узнать их местонахождение. Когда самолет Мессенджера взрывается, Гетрин начинает наводить справки о лицах из списка и узнаёт, что у всех была сходная судьба, что убийца, мастер изменения внешности, для каждой жертвы полностью видоизменял себя. Все жертвы были военнопленными в Бирме во время Второй мировой войны и все знали, кто среди них был предателем... Фильм по одноимённому роману Филипа Макдональда.







Качество: BDRip 1080p

Формат: MKV

Видео: MPEG-4 AVC, 14.5 Mбит/с, 1920x1040, 23.976 кадр/с

Аудио 1: русский, AC3, 192 kbps, 2 ch, 48 kHz [закадровый многоголосый]

Аудио 2: английский, DTS, 1509 kbps, 2 ch, 48 kHz [оригинал]

Субтитры: английские

Главы/чаптеры



MediaInfoОбщее

Уникальный идентификатор : 223882329106648722608669430947718255117 (0xA86E2B0CD53C3A4086E51AC9B526520D)

Полное имя : D:VideoСписок Эдриана Мессенджера.1963.BDRip 1080p msltel.mkv

Формат : Matroska

Версия формата : Version 4

Размер файла : 11,1 Гбайт

Продолжительность : 1 ч. 38 м.

Общий поток : 16,2 Мбит/сек

Название фильма : Rip msltel

Дата кодирования : UTC 2020-07-20 04:59:10

Программа кодирования : mkvmerge v8.2.0 ('World of Adventure') 64bit

Библиотека кодирования : libebml v1.3.1 + libmatroska v1.4.2



Видео

Идентификатор : 1

Формат : AVC

Формат/Информация : Advanced Video Codec

Профиль формата : [email protected]

Настройки формата : CABAC / 4 Ref Frames

Параметр CABAC формата : Да

Параметр RefFrames формата : 4 кадра

Идентификатор кодека : V_MPEG4/ISO/AVC

Продолжительность : 1 ч. 38 м.

Битрейт : 14,5 Мбит/сек

Ширина : 1 920 пикселей

Высота : 1 040 пикселей

Соотношение сторон : 1,85:1

Режим частоты кадров : Постоянный

Частота кадров : 23,976 (24000/1001) кадра/сек

Цветовое пространство : YUV

Субдискретизация насыщенности : 4:2:0

Битовая глубина : 8 бит

Тип развёртки : Прогрессивная

Бит/(Пиксели*Кадры) : 0.304

Размер потока : 9,96 Гбайт (90%)

Библиотека кодирования : x264 core 159 r2991 1771b55

Настройки программы : cabac=1 / ref=4 / deblock=1:-2:-2 / analyse=0x3:0x113 / me=umh / subme=11 / psy=1 / psy_rd=1.00:0.15 / mixed_ref=1 / me_range=32 / chroma_me=1 / trellis=2 / 8x8dct=1 / cqm=0 / deadzone=21,11 / fast_pskip=0 / chroma_qp_offset=-3 / threads=6 / lookahead_threads=1 / sliced_threads=0 / nr=0 / decimate=1 / interlaced=0 / bluray_compat=0 / constrained_intra=0 / bframes=8 / b_pyramid=2 / b_adapt=2 / b_bias=0 / direct=1 / weightb=1 / open_gop=0 / weightp=2 / keyint=230 / keyint_min=23 / scenecut=40 / intra_refresh=0 / rc_lookahead=40 / rc=crf / mbtree=1 / crf=17.0 / qcomp=0.60 / qpmin=0 / qpmax=69 / qpstep=4 / vbv_maxrate=50000 / vbv_bufsize=62500 / crf_max=0.0 / nal_hrd=none / filler=0 / ip_ratio=1.40 / aq=1:1.00

Язык : English

Default : Да

Forced : Нет



Аудио #1

Идентификатор : 2

Формат : AC-3

Формат/Информация : Audio Coding 3

Коммерческое название : Dolby Digital

Идентификатор кодека : A_AC3

Продолжительность : 1 ч. 38 м.

Вид битрейта : Постоянный

Битрейт : 192 Кбит/сек

Каналы : 2 канала

Channel layout : L R

Частота : 48,0 КГц

Частота кадров : 31,250 кадров/сек (1536 SPF)

Метод сжатия : С потерями

Размер потока : 135 Мбайт (1%)

Заголовок : MVO 6-й канал СТС

Язык : Russian

Service kind : Complete Main

Default : Да

Forced : Нет



Аудио #2

Идентификатор : 3

Формат : DTS

Формат/Информация : Digital Theater Systems

Идентификатор кодека : A_DTS

Продолжительность : 1 ч. 38 м.

Вид битрейта : Постоянный

Битрейт : 1 509 Кбит/сек

Каналы : 2 канала

Channel layout : L R

Частота : 48,0 КГц

Частота кадров : 93,750 кадра/сек (512 SPF)

Битовая глубина : 24 бит

Метод сжатия : С потерями

Размер потока : 1,03 Гбайт (9%)

Заголовок : оригинал

Язык : English

Default : Нет

Forced : Нет



Текст

Идентификатор : 4

Формат : UTF-8

Идентификатор кодека : S_TEXT/UTF8

Идентификатор кодека/Информация : UTF-8 Plain Text

Продолжительность : 1 ч. 36 м.

Битрейт : 69 бит/сек

Count of elements : 1417

Размер потока : 49,2 Кбайт (0%)

Заголовок : английские

Язык : English

Default : Нет

Forced : Нет



Меню

00:00:00.000 : en:Chapter 1

00:10:00.600 : en:Chapter 2

00:20:01.200 : en:Chapter 3

00:30:01.800 : en:Chapter 4

00:40:02.400 : en:Chapter 5

00:50:03.000 : en:Chapter 6

01:00:03.600 : en:Chapter 7

01:10:04.200 : en:Chapter 8

01:20:04.800 : en:Chapter 9

01:30:05.400 : en:Chapter 10

01:38:04.629 : en:Chapter 11





Discussion

Comments 0

Post Your Comment

Torrent Files (Unavailable)

Please check back later to get a list of all files included in this torrent.

Alternative Torrents for 'Список Эдриана Мессенджера msltel'.

TORRENT NAMEADDEDSIZESEEDSPEERSHEALTH
7/20/202011.1 GB00
7/20/20203.8 GB00
7/20/20202.1 GB00