The Protector S04 Dual Audio [Hindi DD 5.1] 720p WEBRip MSubs - LMH123

Torrent Details

The Protector S04 Dual Audio [Hindi DD 5.1] 720p WEBRip MSubs - LMH123

NAME
The Protector S04 Dual Audio [Hindi DD 5.1] 720p WEBRip MSubs - LMH123.torrent
CATEGORY
Television
INFOHASH
721eb6169b68f8f692c6a9b206f1775ae5e29136
SIZE
3 GB in 7 files
ADDED
Uploaded on 20-07-2020 by our crawler pet called "Spidey".
SWARM
0 seeders & 1 peers
RATING
No votes yet.

Please login to vote for this torrent.


Description



General

Unique ID                                : 263817453598537521741563312198550350822 (0xC67964B4243A38F5513927C54550EBE6)

Complete name                            : The Protector S04 Dual Audio [Hindi DD5.1] 720p WEBRip MSubs - LMH123

Format                                   : Matroska

Format version                           : Version 4

File size                                : 452 MiB

Duration                                 : 46 min 42 s

Overall bit rate                         : 1 353 kb/s

Movie name                               : Uploaded By ::::LMH123::::

Encoded date                             : UTC 2020-07-20 12:24:20

Writing application                      : mkvmerge v48.0.0 ('Fortress Around Your Heart') 64-bit

Writing library                          : libebml v1.4.0 + libmatroska v1.6.0 / Lavf58.20.100



Video

ID                                       : 1

Format                                   : AVC

Format/Info                              : Advanced Video Codec

Format profile                           : [email protected]

Format settings                          : CABAC / 4 Ref Frames

Format settings, CABAC                   : Yes

Format settings, Reference frames        : 4 frames

Codec ID                                 : V_MPEG4/ISO/AVC

Duration                                 : 46 min 42 s

Bit rate                                 : 974 kb/s

Nominal bit rate                         : 1 026 kb/s

Width                                    : 1 280 pixels

Height                                   : 720 pixels

Display aspect ratio                     : 2.000

Frame rate mode                          : Constant

Frame rate                               : 24.000 FPS

Color space                              : YUV

Chroma subsampling                       : 4:2:0

Bit depth                                : 8 bits

Scan type                                : Progressive

Bits/(Pixel*Frame)                       : 0.044

Stream size                              : 325 MiB (72%)

Title                                    : Uploaded By LMH123

Writing library                          : x264 core 157 r2935 545de2f

Encoding settings                        : cabac=1 / ref=2 / deblock=1:0:0 / analyse=0x1:0x111 / me=hex / subme=6 / psy=1 / psy_rd=1.00:0.00 / mixed_ref=1 / me_range=16 / chroma_me=1 / trellis=1 / 8x8dct=0 / cqm=0 / deadzone=21,11 / fast_pskip=1 / chroma_qp_offset=-2 / threads=6 / lookahead_threads=1 / sliced_threads=0 / nr=0 / decimate=1 / interlaced=0 / bluray_compat=0 / constrained_intra=0 / bframes=3 / b_pyramid=2 / b_adapt=1 / b_bias=0 / direct=1 / weightb=1 / open_gop=0 / weightp=1 / keyint=240 / keyint_min=24 / scenecut=40 / intra_refresh=0 / rc_lookahead=30 / rc=abr / mbtree=1 / bitrate=1026 / ratetol=1.0 / qcomp=0.60 / qpmin=0 / qpmax=69 / qpstep=4 / vbv_maxrate=20000 / vbv_bufsize=25000 / nal_hrd=none / filler=0 / ip_ratio=1.40 / aq=1:1.00

Default                                  : Yes

Forced                                   : No

Color range                              : Limited

Color primaries                          : BT.709

Transfer characteristics                 : BT.709

Matrix coefficients                      : BT.709



Audio #1

ID                                       : 2

Format                                   : AAC LC

Format/Info                              : Advanced Audio Codec Low Complexity

Codec ID                                 : A_AAC-2

Duration                                 : 46 min 42 s

Bit rate                                 : 188 kb/s

Channel(s)                               : 6 channels

Channel layout                           : C L R Ls Rs LFE

Sampling rate                            : 48.0 kHz

Frame rate                               : 46.875 FPS (1024 SPF)

Compression mode                         : Lossy

Delay relative to video                  : -21 ms

Stream size                              : 62.8 MiB (14%)

Title                                    : Uploaded By LMH123

Language                                 : Hindi

Default                                  : No

Forced                                   : No



Audio #2

ID                                       : 3

Format                                   : AAC LC

Format/Info                              : Advanced Audio Codec Low Complexity

Codec ID                                 : A_AAC-2

Duration                                 : 46 min 42 s

Bit rate                                 : 188 kb/s

Channel(s)                               : 6 channels

Channel layout                           : C L R Ls Rs LFE

Sampling rate                            : 48.0 kHz

Frame rate                               : 46.875 FPS (1024 SPF)

Compression mode                         : Lossy

Delay relative to video                  : -21 ms

Stream size                              : 62.8 MiB (14%)

Title                                    : Uploaded By LMH123

Language                                 : English

Default                                  : Yes

Forced                                   : No



Text #1

ID                                       : 4

Format                                   : ASS

Codec ID                                 : S_TEXT/ASS

Codec ID/Info                            : Advanced Sub Station Alpha

Duration                                 : 42 min 36 s

Bit rate                                 : 90 b/s

Count of elements                        : 560

Compression mode                         : Lossless

Stream size                              : 28.4 KiB (0%)

Title                                    : Uploaded By LMH123

Language                                 : English

Default                                  : No

Forced                                   : No



Text #2

ID                                       : 5

Format                                   : ASS

Codec ID                                 : S_TEXT/ASS

Codec ID/Info                            : Advanced Sub Station Alpha

Duration                                 : 45 min 31 s

Bit rate                                 : 167 b/s

Count of elements                        : 567

Compression mode                         : Lossless

Stream size                              : 56.0 KiB (0%)

Title                                    : Uploaded By LMH123

Language                                 : Hindi

Default                                  : No

Forced                                   : No







Discussion

Comments 0

Post Your Comment

Files in this torrent

FILENAMESIZE
The Protector S04E01 Dual Audio [Hindi DD5.1] 720p WEBRip MSubs - LMH123.mkv452.1 MB
The Protector S04E02 Dual Audio [Hindi DD5.1] 720p WEBRip MSubs - LMH123.mkv455.3 MB
The Protector S04E03 Dual Audio [Hindi DD5.1] 720p WEBRip MSubs - LMH123.mkv377.8 MB
The Protector S04E04 Dual Audio [Hindi DD5.1] 720p WEBRip MSubs - LMH123.mkv444.5 MB
The Protector S04E05 Dual Audio [Hindi DD5.1] 720p WEBRip MSubs - LMH123.mkv425.1 MB
The Protector S04E06 Dual Audio [Hindi DD5.1] 720p WEBRip MSubs - LMH123.mkv463.2 MB
The Protector S04E07 Dual Audio [Hindi DD5.1] 720p WEBRip MSubs - LMH123.mkv469.8 MB

Alternative Torrents for 'Protector Dual Audio Hindi DD . MSubs LMH'.

There are no alternative torrents found.