Thick As Thieves (2009) (1080p BDRip X265 10bit LPCM 5 1 - Xtrem3x) [TAoE]

Torrent Details

Thick As Thieves (2009) (1080p BDRip x265 10bit LPCM 5 1 - xtrem3x) <span style=color:#fc9c6d>[TAoE]</span>

NAME
Thick As Thieves (2009) (1080p BDRip x265 10bit LPCM 5 1 - xtrem3x) [TAoE].torrent
CATEGORY
Movies
INFOHASH
d19cefb7fa4a7f2033933ea15776f01147468bd6
SIZE
10.8 GB in 1 file
ADDED
Uploaded on 20-07-2020 by our crawler pet called "Spidey".
SWARM
0 seeders & 0 peers
RATING
No votes yet.

Please login to vote for this torrent.


Description



Hello everyone,

We are TAoE, a small team of passionate encoders who love encoding. We try our best to provide you with high quality releases.



Requests for movies and shows are welcome.

We have a form for encode requests which can be found here

Encode requests form

submit your request and it will be added to our encoding request list

You can view our encoding request list here

Encode requests list





When or if we encode it will depend on if we can obtain a good source to encode with and

if one of the TAoE encoders chooses to encode it. Unfortunately we are not able to encode everything,

new members are welcome as that helps us encode more content!



If you would like to join TAoE submit your request here!

TAoE member applications form









Thick as Thieves (2009) IMDB





















Media Information



General

Unique ID                                : 287131404718635131750360635190869683715 (0xD8037F3D7FE3E8C2A58AC55CFB22EE03)

Complete name                            : Thick As Thieves (2009) (1080p BDRip x265 10bit LPCM 5.1 - xtrem3x) [TAoE].mkv

Format                                   : Matroska

Format version                           : Version 4

File size                                : 10.8 GiB

Duration                                 : 1 h 43 min

Overall bit rate                         : 15.0 Mb/s

Writing application                      : Lavf58.29.100

Writing library                          : Lavf58.29.100

ErrorDetectionType                       : Per level 1



Video

ID                                       : 1

Format                                   : HEVC

Format/Info                              : High Efficiency Video Coding

Format profile                           : Main [email protected]@Main

Codec ID                                 : V_MPEGH/ISO/HEVC

Duration                                 : 1 h 43 min

Bit rate                                 : 10.3 Mb/s

Width                                    : 1 920 pixels

Height                                   : 1 080 pixels

Display aspect ratio                     : 16:9

Frame rate mode                          : Constant

Frame rate                               : 23.976 (23976/1000) FPS

Original frame rate                      : 23.976 (24000/1001) FPS

Color space                              : YUV

Chroma subsampling                       : 4:2:0

Bit depth                                : 10 bits

Bits/(Pixel*Frame)                       : 0.207

Stream size                              : 7.46 GiB (69%)

Title                                    : Encoded by xtrem3x for TAoE using Shinguru V1.5

Writing library                          : x265 3.2+35-acc5d16999e2:[Windows][GCC 9.2.1][64 bit] 10bit

Encoding settings                        : cpuid=1111039 / frame-threads=3 / numa-pools=12 / wpp / no-pmode / no-pme / no-psnr / no-ssim / log-level=2 / input-csp=1 / input-res=1920x1080 / interlace=0 / total-frames=0 / level-idc=0 / high-tier=1 / uhd-bd=0 / ref=4 / no-allow-non-conformance / no-repeat-headers / annexb / no-aud / no-hrd / info / hash=0 / no-temporal-layers / open-gop / min-keyint=23 / keyint=250 / gop-lookahead=0 / bframes=8 / b-adapt=2 / b-pyramid / bframe-bias=0 / rc-lookahead=80 / lookahead-slices=4 / scenecut=40 / hist-scenecut=0 / radl=0 / no-splice / no-intra-refresh / ctu=64 / min-cu-size=8 / no-rect / no-amp / max-tu-size=32 / tu-inter-depth=1 / tu-intra-depth=1 / limit-tu=0 / rdoq-level=2 / dynamic-rd=0.00 / no-ssim-rd / signhide / no-tskip / nr-intra=0 / nr-inter=0 / no-constrained-intra / no-strong-intra-smoothing / max-merge=3 / limit-refs=3 / limit-modes / me=3 / subme=5 / merange=57 / temporal-mvp / no-frame-dup / no-hme / weightp / no-weightb / no-analyze-src-pics / deblock=0:0 / sao / no-sao-non-deblock / rd=4 / selective-sao=4 / no-early-skip / rskip / no-fast-intra / no-tskip-fast / no-cu-lossless / no-b-intra / no-splitrd-skip / rdpenalty=0 / psy-rd=1.30 / psy-rdoq=2.00 / no-rd-refine / no-lossless / cbqpoffs=0 / crqpoffs=0 / rc=crf / crf=20.0 / qcomp=0.60 / qpstep=4 / stats-write=0 / stats-read=0 / ipratio=1.40 / pbratio=1.30 / aq-mode=4 / aq-strength=1.10 / cutree / zone-count=0 / no-strict-cbr / qg-size=32 / no-rc-grain / qpmax=69 / qpmin=0 / no-const-vbv / sar=1 / overscan=0 / videoformat=5 / range=0 / colorprim=2 / transfer=2 / colormatrix=2 / chromaloc=0 / display-window=0 / cll=0,0 / min-luma=0 / max-luma=1023 / log2-max-poc-lsb=8 / vui-timing-info / vui-hrd-info / slices=1 / no-opt-qp-pps / no-opt-ref-list-length-pps / no-multi-pass-opt-rps / scenecut-bias=0.05 / hist-threshold=0.01 / no-opt-cu-delta-qp / no-aq-motion / no-hdr10 / no-hdr10-opt / no-dhdr10-opt / no-idr-recovery-sei / analysis-reuse-level=0 / analysis-save-reuse-level=0 / analysis-load-reuse-level=0 / scale-factor=0 / refine-intra=0 / refine-inter=0 / refine-mv=1 / refine-ctu-distortion=0 / no-limit-sao / ctu-info=0 / no-lowpass-dct / refine-analysis-type=0 / copy-pic=1 / max-ausize-factor=1.0 / no-dynamic-refine / no-single-sei / no-hevc-aq / no-svt / no-field / qp-adaptation-range=1.00 / no-scenecut-aware-qpconformance-window-offsets / right=0 / bottom=0

Default                                  : Yes

Forced                                   : No

Color range                              : Limited



Audio

ID                                       : 2

Format                                   : PCM

Format settings                          : Little / Signed

Codec ID                                 : A_PCM/INT/LIT

Duration                                 : 1 h 43 min

Bit rate mode                            : Constant

Bit rate                                 : 4 608 kb/s

Channel(s)                               : 6 channels

Sampling rate                            : 48.0 kHz

Frame rate                               : 200.000 FPS (240 SPF)

Bit depth                                : 16 bits

Stream size                              : 3.33 GiB (31%)

Language                                 : English

Default                                  : Yes

Forced                                   : No



Text #1

ID                                       : 3

Format                                   : UTF-8

Codec ID                                 : S_TEXT/UTF8

Codec ID/Info                            : UTF-8 Plain Text

Duration                                 : 1 h 31 min

Bit rate                                 : 49 b/s

Count of elements                        : 1027

Stream size                              : 33.2 KiB (0%)

Language                                 : English

Default                                  : No

Forced                                   : No



Text #2

ID                                       : 4

Format                                   : PGS

Codec ID                                 : S_HDMV/PGS

Codec ID/Info                            : Picture based subtitle format used on BDs/HD-DVDs

Duration                                 : 1 h 31 min

Bit rate                                 : 30.1 kb/s

Count of elements                        : 1612

Stream size                              : 19.7 MiB (0%)

Language                                 : Dutch

Default                                  : No

Forced                                   : No





Source Information



General

Unique ID                                : 259644217006529759405790534196470902034 (0xC355A84102C0883192ACE0E80A066D12)

Complete name                            : Thick.As.Thieves.2009.BluRay.1080p.LPCM.5.1.MPEG-2.REMUX-xtrem3x.mkv

Format                                   : Matroska

Format version                           : Version 4

File size                                : 17.8 GiB

Duration                                 : 1 h 43 min

Overall bit rate mode                    : Variable

Overall bit rate                         : 24.6 Mb/s

Encoded date                             : UTC 2020-07-17 20:30:35

Writing application                      : mkvmerge v46.0.0 ('No Deeper Escape') 64-bit

Writing library                          : libebml v1.3.10 + libmatroska v1.5.2



Video

ID                                       : 1

Format                                   : MPEG Video

Format version                           : Version 2

Format profile                           : [email protected]

Format settings                          : CustomMatrix / BVOP

Format settings, BVOP                    : Yes

Format settings, Matrix                  : Custom

Format settings, GOP                     : M=3, N=15

Codec ID                                 : V_MPEG2

Codec ID/Info                            : MPEG 1 or 2 Video

Duration                                 : 1 h 43 min

Bit rate mode                            : Variable

Bit rate                                 : 20.0 Mb/s

Maximum bit rate                         : 32.0 Mb/s

Width                                    : 1 920 pixels

Height                                   : 1 080 pixels

Display aspect ratio                     : 16:9

Frame rate mode                          : Constant

Frame rate                               : 23.976 (24000/1001) FPS

Color space                              : YUV

Chroma subsampling                       : 4:2:0

Bit depth                                : 8 bits

Scan type                                : Progressive

Compression mode                         : Lossy

Bits/(Pixel*Frame)                       : 0.402

Time code of first frame                 : 00:00:00:00

Time code source                         : Group of pictures header

GOP, Open/Closed                         : Closed

Stream size                              : 14.4 GiB (81%)

Default                                  : Yes

Forced                                   : No



Audio

ID                                       : 2

Format                                   : PCM

Format settings                          : Little / Signed

Codec ID                                 : A_PCM/INT/LIT

Duration                                 : 1 h 43 min

Bit rate mode                            : Constant

Bit rate                                 : 4 608 kb/s

Channel(s)                               : 6 channels

Sampling rate                            : 48.0 kHz

Frame rate                               : 200.000 FPS (240 SPF)

Bit depth                                : 16 bits

Stream size                              : 3.33 GiB (19%)

Language                                 : English

Default                                  : Yes

Forced                                   : No



Text #1

ID                                       : 3

Format                                   : UTF-8

Codec ID                                 : S_TEXT/UTF8

Codec ID/Info                            : UTF-8 Plain Text

Duration                                 : 1 h 31 min

Bit rate                                 : 49 b/s

Count of elements                        : 1027

Stream size                              : 33.2 KiB (0%)

Language                                 : English

Default                                  : No

Forced                                   : No



Text #2

ID                                       : 4

Format                                   : PGS

Muxing mode                              : zlib

Codec ID                                 : S_HDMV/PGS

Codec ID/Info                            : Picture based subtitle format used on BDs/HD-DVDs

Duration                                 : 1 h 31 min

Bit rate                                 : 30.1 kb/s

Count of elements                        : 1612

Stream size                              : 19.7 MiB (0%)

Language                                 : Dutch

Default                                  : No

Forced                                   : No

Discussion

Comments 0

Post Your Comment

Files in this torrent

FILENAMESIZE
Thick As Thieves (2009) (1080p BDRip x265 10bit LPCM 5.1 - xtrem3x) [TAoE].mkv10.8 GB

Alternative Torrents for 'Thick As Thieves bit LPCM xtremx'.

There are no alternative torrents found.