Что пророчит мак Ts

Torrent Details


Что пророчит мак ts

NAME
Что пророчит мак ts.torrent
CATEGORY
Television
INFOHASH
5b515d4d6046f512959ec9d9f69a8056f88c723d
SIZE
2.8 GB in 0 files
ADDED
Uploaded on 20-07-2020 by our crawler pet called "Spidey".
SWARM
0 seeders & 0 peers
RATING
No votes yet.

Please login to vote for this torrent.


Description

Информация о фильме

Название: Что пророчит мак. Тайная жизнь полей

Оригинальное название: Poppy's Promise. Secret Life in a Cornfield

Год выхода: 2010

Жанр: Документальный, природа, флора, фауна

Режиссер: Ян Хафт



О фильме:

Кукурузное поле — это просто место для производства пищи или земля, полная тайн? Почему одни обитатели кукурузных полей вредны, а другие полезны? Что же обещают нам разноцветные цветы на краю поля? Этот документальный фильм показывает среду обитания прямо по соседству. Впечатляющие визуальные эффекты, снятые с помощью современных видеокамер, представляют удивительно большое разнообразие полевых обитателей.





Страна: Германия

Студия: nautilusfilm, BR, arte

Продолжительность: ~ 00:43:39

Перевод: Профессиональный (одноголосый закадровый)



Файл

Кодек: AVC/H.264

Качество: HDTV 1080i

Видео: 1920x1080 (16:9), AVC (Н.264), [email protected], ~ 8573 kbps, 25 fps, 0.165 bit/pixel

Звук: Русский 48 kHz, MPEG Layer 2, 2 ch, ~192.00 kbps avg



Семпл



MediaInfoComplete name : F:Наладки Что пророчит мак.ts

Format : MPEG-TS

File size : 2.81 GiB

Duration : 43 min 39 s

Overall bit rate mode : Variable

Overall bit rate : 9 222 kb/s



Video

ID : 3711 (0xE7F)

Menu ID : 37001 (0x9089)

Format : AVC

Format/Info : Advanced Video Codec

Format profile : [email protected]

Format settings : CABAC / 3 Ref Frames

Format settings, CABAC : Yes

Format settings, Reference : 3 frames

Format settings, GOP : M=4, N=32

Codec ID : 27

Duration : 43 min 39 s

Bit rate : 8 573 kb/s

Width : 1 920 pixels

Height : 1 080 pixels

Display aspect ratio : 16:9

Frame rate : 25.000 FPS

Color space : YUV

Chroma subsampling : 4:2:0

Bit depth : 8 bits

Scan type : Interlaced

Scan type, store method : Separated fields

Scan order : Top Field First

Bits/(Pixel*Frame) : 0.165

Stream size : 2.61 GiB (93%)

Color range : Limited

Color primaries : BT.709

Transfer characteristics : BT.709

Matrix coefficients : BT.709



Audio

ID : 3712 (0xE80)

Menu ID : 37001 (0x9089)

Format : MPEG Audio

Format version : Version 1

Format profile : Layer 2

Codec ID : 3

Duration : 43 min 39 s

Bit rate mode : Constant

Bit rate : 192 kb/s

Channel(s) : 2 channels

Sampling rate : 48.0 kHz

Frame rate : 41.667 FPS (1152 SPF)

Compression mode : Lossy

Delay relative to video : -40 ms

Stream size : 60.0 MiB (2%)

Language : Russian

Скриншоты



Релиз от: kyba

Discussion

Comments 0

Post Your Comment

Torrent Files (Unavailable)

Please check back later to get a list of all files included in this torrent.

Alternative Torrents for 'Что пророчит мак ts'.

TORRENT NAMEADDEDSIZESEEDSPEERSHEALTH
7/20/20202.8 GB00