Paper Towns 2015 MULTI 2160p HDR WEBRip DTS-HD MA 5.1 HEVC-DDR

Torrent Details

Paper Towns 2015 MULTI 2160p HDR WEBRip DTS-HD MA 5.1 HEVC-DDR

NAME
Paper Towns 2015 MULTI 2160p HDR WEBRip DTS-HD MA 5.1 HEVC-DDR.torrent
CATEGORY
Movies
INFOHASH
5e39830821a01e3ddc3d0fe8ea4ff1562fded0bb
SIZE
10.7 GB in 1 file
ADDED
Uploaded on 20-07-2020 by our crawler pet called "Spidey".
SWARM
0 seeders & 0 peers
RATING
No votes yet.

Please login to vote for this torrent.


Description















General

Unique ID                                : 120654877696932829762356544848567547169 (0x5AC548C0A11B88FDA5A52566E5253521)

Complete name                            : D:0_demuxPaper.Towns.2015.MULTI.2160p.HDR.WEBRip.DTS-HD.MA.5.1.HEVC-DDR.mkv

Format                                   : Matroska

Format version                           : Version 4

File size                                : 10.7 GiB

Duration                                 : 1 h 49 min

Overall bit rate mode                    : Variable

Overall bit rate                         : 14.1 Mb/s

Encoded date                             : UTC 2020-07-19 12:10:01

Writing application                      : mkvmerge v47.0.0 ('Black Flag') 64-bit

Writing library                          : libebml v1.3.10 + libmatroska v1.5.2



Video

ID                                       : 1

Format                                   : HEVC

Format/Info                              : High Efficiency Video Coding

Commercial name                          : HDR10

Format profile                           : Main [email protected]@High

Codec ID                                 : V_MPEGH/ISO/HEVC

Duration                                 : 1 h 49 min

Bit rate                                 : 9 751 kb/s

Width                                    : 3 840 pixels

Height                                   : 1 600 pixels

Display aspect ratio                     : 2.40:1

Frame rate mode                          : Constant

Frame rate                               : 23.976 (24000/1001) FPS

Color space                              : YUV

Chroma subsampling                       : 4:2:0

Bit depth                                : 10 bits

Bits/(Pixel*Frame)                       : 0.066

Stream size                              : 7.43 GiB (69%)

Language                                 : English

Default                                  : Yes

Forced                                   : No

Color range                              : Limited

Color primaries                          : BT.2020

Transfer characteristics                 : PQ

Matrix coefficients                      : BT.2020 non-constant

Mastering display color primaries        : BT.2020

Mastering display luminance              : min: 0.0050 cd/m2, max: 1000 cd/m2

Maximum Content Light Level              : 538 cd/m2

Maximum Frame-Average Light Level        : 135 cd/m2



Audio #1

ID                                       : 2

Format                                   : DTS XLL

Format/Info                              : Digital Theater Systems

Commercial name                          : DTS-HD Master Audio

Codec ID                                 : A_DTS

Duration                                 : 1 h 49 min

Bit rate mode                            : Variable

Bit rate                                 : 3 851 kb/s

Channel(s)                               : 6 channels

Channel layout                           : C L R Ls Rs LFE

Sampling rate                            : 48.0 kHz

Frame rate                               : 93.750 FPS (512 SPF)

Bit depth                                : 24 bits

Compression mode                         : Lossless

Stream size                              : 2.93 GiB (27%)

Language                                 : English

Default                                  : No

Forced                                   : No



Audio #2

ID                                       : 3

Format                                   : AC-3

Format/Info                              : Audio Coding 3

Commercial name                          : Dolby Digital

Codec ID                                 : A_AC3

Duration                                 : 1 h 49 min

Bit rate mode                            : Constant

Bit rate                                 : 448 kb/s

Channel(s)                               : 6 channels

Channel layout                           : L R C LFE Ls Rs

Sampling rate                            : 48.0 kHz

Frame rate                               : 31.250 FPS (1536 SPF)

Bit depth                                : 16 bits

Compression mode                         : Lossy

Stream size                              : 350 MiB (3%)

Language                                 : French

Service kind                             : Complete Main

Default                                  : Yes

Forced                                   : Yes



Text #1

ID                                       : 4

Format                                   : PGS

Muxing mode                              : zlib

Codec ID                                 : S_HDMV/PGS

Codec ID/Info                            : Picture based subtitle format used on BDs/HD-DVDs

Duration                                 : 1 h 43 min

Bit rate                                 : 45.5 kb/s

Count of elements                        : 3780

Stream size                              : 33.8 MiB (0%)

Language                                 : English

Default                                  : No

Forced                                   : No



Text #2

ID                                       : 5

Format                                   : PGS

Muxing mode                              : zlib

Codec ID                                 : S_HDMV/PGS

Codec ID/Info                            : Picture based subtitle format used on BDs/HD-DVDs

Duration                                 : 1 h 48 min

Bit rate                                 : 35.0 kb/s

Count of elements                        : 3120

Stream size                              : 27.1 MiB (0%)

Language                                 : French

Default                                  : No

Forced                                   : No



Text #3

ID                                       : 6

Format                                   : UTF-8

Codec ID                                 : S_TEXT/UTF8

Codec ID/Info                            : UTF-8 Plain Text

Duration                                 : 1 h 36 min

Bit rate                                 : 0 b/s

Count of elements                        : 11

Stream size                              : 327 Bytes (0%)

Title                                    : forced

Language                                 : French

Default                                  : Yes

Forced                                   : Yes









MikeKhan /Desitorrents.tv

Discussion

Comments 0

Post Your Comment

Files in this torrent

FILENAMESIZE
Paper.Towns.2015.MULTI.2160p.HDR.WEBRip.DTS-HD.MA.5.1.HEVC-DDR.mkv10.7 GB

Alternative Torrents for 'Paper Towns MULTI HDR DTSHD MA HEVCDDR'.

There are no alternative torrents found.