Search Party (2016) S01-S03 (1080p HMAX Webrip X265 10bit AC3 5.1 - HxD) [TAoE]

Torrent Details

Search Party (2016) S01-S03 (1080p HMAX Webrip x265 10bit AC3 5.1 - HxD) <span style=color:#fc9c6d>[TAoE]</span>

NAME
Search Party (2016) S01-S03 (1080p HMAX Webrip x265 10bit AC3 5.1 - HxD) [TAoE].torrent
CATEGORY
Television
INFOHASH
921c9e083e95dfbd69acacc7319ff4b5b8783893
SIZE
17 GB in 30 files
ADDED
Uploaded on 21-07-2020 by our crawler pet called "Spidey".
SWARM
3 seeders & 2 peers
RATING
No votes yet.

Please login to vote for this torrent.


Description



Hello everyone,

We are TAoE, a small team of passionate encoders who love encoding. We try our best to provide you with high quality releases.



Requests for movies and shows are welcome.

We have a form for encode requests which can be found here

Encode requests form

submit your request and it will be added to our encoding request list

You can view our encoding request list here

Encode requests list





When or if we encode it will depend on if we can obtain a good source to encode with and

if one of the TAoE encoders chooses to encode it. Unfortunately we are not able to encode everything,

new members are welcome as that helps us encode more content!



If you would like to join TAoE submit your request here!

TAoE member applications form









Search Party (2016) IMDB

























Media Information



General

Unique ID                                : 87971759879016227058755016424696380420 (0x422EBEA21CDC81A873D2B574DE24FC04)

Complete name                            : Search Party (2016) S01E01 The Mysterious Disappearance of the Girl No One Knew (1080p HMAX Webrip x265 10bit AC3 5.1 - HxD) [TAoE].mkv

Format                                   : Matroska

Format version                           : Version 4

File size                                : 507 MiB

Duration                                 : 23 min 2 s

Overall bit rate                         : 3 079 kb/s

Movie name                               : Search Party (2016) S01E01 The Mysterious Disappearance of the Girl No One Knew (1080p HMAX Webrip x265 10bit AC3 5.1 - HxD) [TAoE].mkv

Writing application                      : Lavf58.29.100

Writing library                          : Lavf58.29.100

ErrorDetectionType                       : Per level 1



Video

ID                                       : 1

Format                                   : HEVC

Format/Info                              : High Efficiency Video Coding

Format profile                           : Main [email protected]@Main

Codec ID                                 : V_MPEGH/ISO/HEVC

Duration                                 : 23 min 2 s

Bit rate                                 : 2 692 kb/s

Width                                    : 1 920 pixels

Height                                   : 1 080 pixels

Display aspect ratio                     : 16:9

Frame rate mode                          : Constant

Frame rate                               : 23.976 (24000/1001) FPS

Color space                              : YUV

Chroma subsampling                       : 4:2:0

Bit depth                                : 10 bits

Bits/(Pixel*Frame)                       : 0.054

Stream size                              : 444 MiB (87%)

Title                                    : Encoded by HxD for TAoE using Shinguru V1.2

Writing library                          : x265 3.2+35-acc5d16999e2:[Windows][GCC 9.2.1][64 bit] 10bit

Encoding settings                        : cpuid=1111039 / frame-threads=3 / numa-pools=8 / wpp / no-pmode / no-pme / no-psnr / no-ssim / log-level=2 / input-csp=1 / input-res=1920x1080 / interlace=0 / total-frames=0 / level-idc=0 / high-tier=1 / uhd-bd=0 / ref=4 / no-allow-non-conformance / no-repeat-headers / annexb / no-aud / no-hrd / info / hash=0 / no-temporal-layers / open-gop / min-keyint=23 / keyint=250 / gop-lookahead=0 / bframes=8 / b-adapt=2 / b-pyramid / bframe-bias=0 / rc-lookahead=80 / lookahead-slices=4 / scenecut=40 / hist-scenecut=0 / radl=0 / no-splice / no-intra-refresh / ctu=64 / min-cu-size=8 / no-rect / no-amp / max-tu-size=32 / tu-inter-depth=1 / tu-intra-depth=1 / limit-tu=0 / rdoq-level=2 / dynamic-rd=0.00 / no-ssim-rd / signhide / no-tskip / nr-intra=0 / nr-inter=0 / no-constrained-intra / no-strong-intra-smoothing / max-merge=3 / limit-refs=3 / limit-modes / me=3 / subme=5 / merange=57 / temporal-mvp / no-frame-dup / no-hme / weightp / no-weightb / no-analyze-src-pics / deblock=0:0 / sao / no-sao-non-deblock / rd=4 / selective-sao=4 / no-early-skip / rskip / no-fast-intra / no-tskip-fast / no-cu-lossless / no-b-intra / no-splitrd-skip / rdpenalty=0 / psy-rd=1.30 / psy-rdoq=2.00 / no-rd-refine / no-lossless / cbqpoffs=0 / crqpoffs=0 / rc=crf / crf=20.0 / qcomp=0.60 / qpstep=4 / stats-write=0 / stats-read=0 / ipratio=1.40 / pbratio=1.30 / aq-mode=4 / aq-strength=1.10 / cutree / zone-count=0 / no-strict-cbr / qg-size=32 / no-rc-grain / qpmax=69 / qpmin=0 / no-const-vbv / sar=1 / overscan=0 / videoformat=5 / range=0 / colorprim=2 / transfer=2 / colormatrix=2 / chromaloc=0 / display-window=0 / cll=0,0 / min-luma=0 / max-luma=1023 / log2-max-poc-lsb=8 / vui-timing-info / vui-hrd-info / slices=1 / no-opt-qp-pps / no-opt-ref-list-length-pps / no-multi-pass-opt-rps / scenecut-bias=0.05 / hist-threshold=0.01 / no-opt-cu-delta-qp / no-aq-motion / no-hdr10 / no-hdr10-opt / no-dhdr10-opt / no-idr-recovery-sei / analysis-reuse-level=0 / analysis-save-reuse-level=0 / analysis-load-reuse-level=0 / scale-factor=0 / refine-intra=0 / refine-inter=0 / refine-mv=1 / refine-ctu-distortion=0 / no-limit-sao / ctu-info=0 / no-lowpass-dct / refine-analysis-type=0 / copy-pic=1 / max-ausize-factor=1.0 / no-dynamic-refine / no-single-sei / no-hevc-aq / no-svt / no-field / qp-adaptation-range=1.00 / no-scenecut-aware-qpconformance-window-offsets / right=0 / bottom=0

Language                                 : English

Default                                  : Yes

Forced                                   : No

Color range                              : Limited



Audio

ID                                       : 2

Format                                   : AC-3

Format/Info                              : Audio Coding 3

Commercial name                          : Dolby Digital

Codec ID                                 : A_AC3

Duration                                 : 23 min 2 s

Bit rate mode                            : Constant

Bit rate                                 : 384 kb/s

Channel(s)                               : 6 channels

Channel layout                           : L R C LFE Ls Rs

Sampling rate                            : 48.0 kHz

Frame rate                               : 31.250 FPS (1536 SPF)

Bit depth                                : 32 bits

Compression mode                         : Lossy

Stream size                              : 63.3 MiB (12%)

Language                                 : English

Service kind                             : Complete Main

Default                                  : Yes

Forced                                   : No



Text

ID                                       : 3

Format                                   : UTF-8

Codec ID                                 : S_TEXT/UTF8

Codec ID/Info                            : UTF-8 Plain Text

Duration                                 : 22 min 47 s

Bit rate                                 : 90 b/s

Count of elements                        : 924

Stream size                              : 15.1 KiB (0%)

Title                                    : English (SDH)

Language                                 : English

Default                                  : No

Forced                                   : No







Source

S01-S02: 1080p WEB-DL NiXON

S03: 1080p HMAX WEB-DL AJP69

Discussion

Comments 0

Post Your Comment

Files in this torrent

FILENAMESIZE
Season 1/Search Party (2016) S01E01 The Mysterious Disappearance of the Girl No One Knew (1080p HMAX Webrip x265 10bit AC3 5.1 - HxD) [TAoE].mkv507.4 MB
Season 1/Search Party (2016) S01E02 The Woman Who Knew Too Much (1080p HMAX Webrip x265 10bit AC3 5.1 - HxD) [TAoE].mkv560.5 MB
Season 1/Search Party (2016) S01E03 The Night of One Hundred Candles (1080p HMAX Webrip x265 10bit AC3 5.1 - HxD) [TAoE].mkv414 MB
Season 1/Search Party (2016) S01E04 The Captive Dinner Guest (1080p HMAX Webrip x265 10bit AC3 5.1 - HxD) [TAoE].mkv419 MB
Season 1/Search Party (2016) S01E05 The Mystery of the Golden Charm (1080p HMAX Webrip x265 10bit AC3 5.1 - HxD) [TAoE].mkv529.9 MB
Season 1/Search Party (2016) S01E06 The Secret of the Sinister Ceremony (1080p HMAX Webrip x265 10bit AC3 5.1 - HxD) [TAoE].mkv509.1 MB
Season 1/Search Party (2016) S01E07 The Riddle Within the Trash (1080p HMAX Webrip x265 10bit AC3 5.1 - HxD) [TAoE].mkv394.4 MB
Season 1/Search Party (2016) S01E08 The Return of the Forgotten Phantom (1080p HMAX Webrip x265 10bit AC3 5.1 - HxD) [TAoE].mkv478.9 MB
Season 1/Search Party (2016) S01E09 The Password to the Shadows (1080p HMAX Webrip x265 10bit AC3 5.1 - HxD) [TAoE].mkv520.8 MB
Season 1/Search Party (2016) S01E10 The House of Uncanny Truths (1080p HMAX Webrip x265 10bit AC3 5.1 - HxD) [TAoE].mkv588.9 MB
Season 2/Search Party (2016) S02E01 Murder! (1080p HMAX Webrip x265 10bit AC3 5.1 - HxD) [TAoE].mkv543.2 MB
Season 2/Search Party (2016) S02E02 Conspiracy (1080p HMAX Webrip x265 10bit AC3 5.1 - HxD) [TAoE].mkv626.7 MB
Season 2/Search Party (2016) S02E03 Paralysis (1080p HMAX Webrip x265 10bit AC3 5.1 - HxD) [TAoE].mkv472.7 MB
Season 2/Search Party (2016) S02E04 Suspicion (1080p HMAX Webrip x265 10bit AC3 5.1 - HxD) [TAoE].mkv507.4 MB
Season 2/Search Party (2016) S02E05 Paranoia (1080p HMAX Webrip x265 10bit AC3 5.1 - HxD) [TAoE].mkv599.5 MB
Season 2/Search Party (2016) S02E06 Obsession (1080p HMAX Webrip x265 10bit AC3 5.1 - HxD) [TAoE].mkv507.9 MB
Season 2/Search Party (2016) S02E07 Denial (1080p HMAX Webrip x265 10bit AC3 5.1 - HxD) [TAoE].mkv468.9 MB
Season 2/Search Party (2016) S02E08 Hysteria (1080p HMAX Webrip x265 10bit AC3 5.1 - HxD) [TAoE].mkv680 MB
Season 2/Search Party (2016) S02E09 Frenzy (1080p HMAX Webrip x265 10bit AC3 5.1 - HxD) [TAoE].mkv589.6 MB
Season 2/Search Party (2016) S02E10 Psychosis (1080p HMAX Webrip x265 10bit AC3 5.1 - HxD) [TAoE].mkv575 MB
Season 3/Search Party (2016) S03E01 The Accused (1080p HMAX Webrip x265 10bit AC3 5.1 - HxD) [TAoE].mkv586.5 MB
Season 3/Search Party (2016) S03E02 The Rookie Lawyer (1080p HMAX Webrip x265 10bit AC3 5.1 - HxD) [TAoE].mkv656.4 MB
Season 3/Search Party (2016) S03E03 The Whistleblower (1080p HMAX Webrip x265 10bit AC3 5.1 - HxD) [TAoE].mkv627.6 MB
Season 3/Search Party (2016) S03E04 A National Affair (1080p HMAX Webrip x265 10bit AC3 5.1 - HxD) [TAoE].mkv646.1 MB
Season 3/Search Party (2016) S03E05 Public Appeal (1080p HMAX Webrip x265 10bit AC3 5.1 - HxD) [TAoE].mkv910.4 MB
Season 3/Search Party (2016) S03E06 In God We Trust (1080p HMAX Webrip x265 10bit AC3 5.1 - HxD) [TAoE].mkv767 MB
Season 3/Search Party (2016) S03E07 Rogue Witness (1080p HMAX Webrip x265 10bit AC3 5.1 - HxD) [TAoE].mkv667.9 MB
Season 3/Search Party (2016) S03E08 A Dangerous Union (1080p HMAX Webrip x265 10bit AC3 5.1 - HxD) [TAoE].mkv660.6 MB
Season 3/Search Party (2016) S03E09 Irrefutable Evidence (1080p HMAX Webrip x265 10bit AC3 5.1 - HxD) [TAoE].mkv682.9 MB
Season 3/Search Party (2016) S03E10 The Reckoning (1080p HMAX Webrip x265 10bit AC3 5.1 - HxD) [TAoE].mkv745.3 MB

Alternative Torrents for 'Search Party SS HMAX bit HxD'.

There are no alternative torrents found.