London (2005) Open Matte 1080p

Torrent Details

London (2005) Open Matte 1080p

NAME
London (2005) Open Matte 1080p.torrent
CATEGORY
Movies
INFOHASH
8ea691f381965a37b888b57714553e9d3ef62b90
SIZE
4 GB in 1 file
ADDED
Uploaded on 21-07-2020 by our crawler pet called "Spidey".
SWARM
3 seeders & 0 peers
RATING
No votes yet.

Please login to vote for this torrent.


Description

Название: Лондон

Оригинальное название: London

Год выхода: 2005

Жанр: драма, мелодрама

Режиссер: Хантер Ричардс

В ролях: Крис Эванс, Джессика Бил, Джой Брайант, Джейсон Стэтхэм, Келли Гарнер, Айла Фишер, Луис С.К., Джефф Вульф, Дейн Кук, Лина Эско, Паула Паттон, Кэт Деннингс, Джульетт Маркиз



О фильме:

Бросившись в пучину страстного, бурного романа с девушкой по имени Лондон, Сид верил, что эта музыка сфер будет вечной, но ошибся. Однажды они оба поняли, что чувства исчерпали себя, и Лондон ушла из жизни героя. Но девушка ушла, а боль осталась. Пытаясь заглушить муки разбитого сердца, Сид пускается во все тяжкие, глуша себя виски и наркотиками. Тщетно!

Поняв, что его жизнь бессмысленна без любимой, герой решает во что бы то ни стало увидеть Лондон и либо уговорить её вернуться, либо умереть. Но у него будет всего одна попытка, если он не успеет сделать это сегодня, он потеряет эту девушку окончательно: завтра Лондон навсегда уезжает из города.







Страна: Великобритания, США

Выпущено: Destination Films, LHR Productions Inc., National Film and Television School (NFTS)

Продолжительность: 01:32:19

Перевод: Профессиональный (многоголосый закадровый), профессиональный (двухголосый закадровый), авторский (одноголосый закадровый).



Формат: MKV

Качество: WEB-DL 1080p

Видео: AVC/H.264, 1920x1080, 23.976 fps, 4731 Kbps

Аудио #1: AC3, 2 ch, 192 Kbps - Русский (MVO Первый канал)

Аудио #2: AC3, 6 ch, 448 Kbps - Русский (DVO R5)

Аудио #3: AC3, 6 ch, 448 Kbps - Русский (AVO Есарев) ненормативная лексика

Аудио #4: AC3, 6 ch, 384 Kbps - Английский

Субтитры: английские



MediaInfoGeneral

Unique ID : 214634696419175004594156753930741007277 (0xA179238E8B8A50E19F54C7F33E7EC3AD)

Complete name : D:London (2005) Open Matte 1080p.mkv

Format : Matroska

Format version : Version 4

File size : 4.00 GiB

Duration : 1 h 32 min

Overall bit rate : 6 202 kb/s

Encoded date : UTC 2020-07-20 15:52:15

Writing application : mkvmerge v8.3.0 ('Over the Horizon') 32bit

Writing library : libebml v1.3.1 + libmatroska v1.4.2



Video

ID : 1

Format : AVC

Format/Info : Advanced Video Codec

Format profile : [email protected]

Format settings : CABAC / 4 Ref Frames

Format settings, CABAC : Yes

Format settings, Reference : 4 frames

Codec ID : V_MPEG4/ISO/AVC

Duration : 1 h 32 min

Bit rate : 4 731 kb/s

Width : 1 918 pixels

Height : 1 080 pixels

Display aspect ratio : 16:9

Frame rate mode : Constant

Frame rate : 23.976 (23976/1000) FPS

Color space : YUV

Chroma subsampling : 4:2:0

Bit depth : 8 bits

Scan type : Progressive

Bits/(Pixel*Frame) : 0.095

Stream size : 3.05 GiB (76%)

Language : English

Default : Yes

Forced : No

Color range : Limited

Color primaries : BT.709

Transfer characteristics : BT.709

Matrix coefficients : BT.709



Audio #1

ID : 2

Format : AC-3

Format/Info : Audio Coding 3

Commercial name : Dolby Digital

Codec ID : A_AC3

Duration : 1 h 32 min

Bit rate mode : Constant

Bit rate : 192 kb/s

Channel(s) : 2 channels

Channel layout : L R

Sampling rate : 48.0 kHz

Frame rate : 31.250 FPS (1536 SPF)

Bit depth : 16 bits

Compression mode : Lossy

Stream size : 126 MiB (3%)

Title : MVO Первый канал

Language : Russian

Service kind : Complete Main

Default : Yes

Forced : No



Audio #2

ID : 3

Format : AC-3

Format/Info : Audio Coding 3

Commercial name : Dolby Digital

Codec ID : A_AC3

Duration : 1 h 32 min

Bit rate mode : Constant

Bit rate : 448 kb/s

Channel(s) : 6 channels

Channel layout : L R C LFE Ls Rs

Sampling rate : 48.0 kHz

Frame rate : 31.250 FPS (1536 SPF)

Bit depth : 16 bits

Compression mode : Lossy

Stream size : 295 MiB (7%)

Title : DVO R5

Language : Russian

Service kind : Complete Main

Default : No

Forced : No



Audio #3

ID : 4

Format : AC-3

Format/Info : Audio Coding 3

Commercial name : Dolby Digital

Codec ID : A_AC3

Duration : 1 h 32 min

Bit rate mode : Constant

Bit rate : 448 kb/s

Channel(s) : 6 channels

Channel layout : L R C LFE Ls Rs

Sampling rate : 48.0 kHz

Frame rate : 31.250 FPS (1536 SPF)

Bit depth : 16 bits

Compression mode : Lossy

Stream size : 295 MiB (7%)

Title : AVO Есарев

Language : Russian

Service kind : Complete Main

Default : No

Forced : No



Audio #4

ID : 5

Format : AC-3

Format/Info : Audio Coding 3

Commercial name : Dolby Digital

Codec ID : A_AC3

Duration : 1 h 32 min

Bit rate mode : Constant

Bit rate : 384 kb/s

Channel(s) : 6 channels

Channel layout : L R C LFE Ls Rs

Sampling rate : 48.0 kHz

Frame rate : 31.250 FPS (1536 SPF)

Bit depth : 16 bits

Compression mode : Lossy

Stream size : 254 MiB (6%)

Language : English

Service kind : Complete Main

Default : No

Forced : No



Text

ID : 6

Format : UTF-8

Codec ID : S_TEXT/UTF8

Codec ID/Info : UTF-8 Plain Text

Duration : 1 h 24 min

Bit rate : 87 b/s

Count of elements : 1292

Stream size : 54.5 KiB (0%)

Language : English

Default : No

Forced : No



Menu

00:00:00.000 : en:1

00:05:11.000 : en:2

00:11:47.000 : en:3

00:18:01.000 : en:4

00:24:15.000 : en:5

00:30:59.000 : en:6

00:36:59.000 : en:7

00:41:27.000 : en:8

00:46:06.000 : en:9

00:52:11.000 : en:10

00:55:56.000 : en:11

01:02:05.000 : en:12

01:11:33.000 : en:13

01:17:05.000 : en:14

01:22:25.000 : en:15

01:26:55.000 : en:16Примечание & Сравнения:Open Matte-версия фильма имеет большее наполнение кадра







Скриншоты

Discussion

Comments 0

Post Your Comment

Files in this torrent

FILENAMESIZE
London (2005) Open Matte 1080p.mkv4 GB

Alternative Torrents for 'London Open Matte'.

TORRENT NAMEADDEDSIZESEEDSPEERSHEALTH
7/21/20204 GB00