Гостья из будущего (1984) 1080p (AI Upscale)

Torrent Details


Гостья из будущего (1984) 1080p (AI Upscale)

NAME
Гостья из будущего (1984) 1080p (AI Upscale).torrent
CATEGORY
Movies
INFOHASH
9f8849b84ba2d3f4266649eead73460d412d88e7
SIZE
12.8 GB in 5 files
ADDED
Uploaded on 21-07-2020 by our crawler pet called "Spidey".
SWARM
0 seeders & 0 peers
RATING
No votes yet.

Please login to vote for this torrent.


Description

Информация о фильме

Название: Гостья из будущего

Год выхода: 1984

Жанр: Детская фантастика

Режиссер: Павел Арсенов

В ролях: Наталья Гусева, Алексей Фомкин, Илья Наумов, Вячеслав Невинный, Михаил Кононов, Евгений Герасимов, Владимир Носик, Юрий Григорьев, Игорь Ясулович, Георгий Бурков, Валентина Талызина, Вячеслав Баранов, Наталья Варлей, Андрей Градов, Елена Цыплакова, Борис Щербаков, Светлана Харитонова, Людмила Аринина, Татьяна Божок, Мария Скворцова, Инна Гомес, Марьяна Ионесян, Елена Метёлкина, Мария Стерникова, Екатерина Васильева (II), Антон Суховерко, Семён Бузган, Алексей Муравьев, Екатерина Авербах, Елена Коляскина, Мария Баукина, Наталья Шанаева, Рубен Симонов, Сергей Рошинец, Раднэр Муратов, Манефа Соболевская



О фильме:

13 апреля 1984 года, в пятницу, ученик 6-го «Б» класса 20-й московской школы Коля Герасимов, отправившись после уроков в магазин за кефиром, встречает на оживлённой улице друга и одноклассника Фиму Королёва, который, в свою очередь, увлекает его слежкой за таинственной незнакомкой. Выслеживая её, ребята забираются в старый заброшенный двухэтажный дом, но незнакомки там не оказывается. В подвале, в потайной комнате, вход в которую замаскирован под обычный шкаф, Коля обнаруживает машину времени. Борьба с космическими пиратами, захватывающее путешествие во времени, знакомство с роботом Вертером, говорящим козлом и девочкой из будущего Алисой Селезневой - вот к чему привел Колю обычный поход за кефиром. Фильм поставлен по мотивам фантастического романа Кира Булычева «Сто лет тому вперед»...







Страна: СССР

Студия: Киностудия имени Горького

Продолжительность: 5x ~ 01:06:00



Файл

Кодек: x264

Качество: AI upscale 1080 строк

Видео: 1432x1080 (4:3), 25.000 fps, AVC, ~5200 Kbps

Звук: AC3, 480Kbps, 48.0 KHz, 2 channels

Субтитры: Русские



Сравнение:

https://screenshotcomparison.com/comparison/4661



Скриншоты

MIормат : Matroska

Версия формата : Version 2

Размер файла : 2,50 Гбайт

Продолжительность : 1 ч. 3 м.

Общий поток : 5667 Кбит/сек

Дата кодирования : UTC 2020-07-20 14:43:43

Программа кодирования : mkvmerge v5.5.0 ('Healer') built on Apr 6 2012 21:43:24

Библиотека кодирования : libebml v1.2.3 + libmatroska v1.3.0



Видео

Идентификатор : 1

Формат : AVC

Формат/Информация : Advanced Video Codec

Профиль формата : [email protected]

Параметр CABAC формата : Да

Параметр ReFrames формата : 5 кадров

Идентификатор кодека : V_MPEG4/ISO/AVC

Продолжительность : 1 ч. 3 м.

Битрейт : 5106 Кбит/сек

Ширина : 1432 пикселя

Высота : 1080 пикселей

Соотношение сторон : 4:3

Режим частоты кадров : Постоянный

Частота кадров : 25,000 кадров/сек

Цветовое пространство : YUV

Субдискретизация насыщенности : 4:2:0

Битовая глубина : 8 бит

Тип развёртки : Прогрессивная

Бит/(Пиксели*Кадры) : 0.132

Размер потока : 2,25 Гбайт (90%)

Библиотека кодирования : x264 core 157 r2935 545de2f

Настройки программы : cabac=1 / ref=5 / deblock=1:0:-1 / analyse=0x3:0x133 / me=umh / subme=9 / psy=1 / psy_rd=1.00:0.00 / mixed_ref=1 / me_range=24 / chroma_me=1 / trellis=2 / 8x8dct=1 / cqm=0 / deadzone=21,11 / fast_pskip=0 / chroma_qp_offset=-2 / threads=24 / lookahead_threads=2 / sliced_threads=0 / nr=0 / decimate=1 / interlaced=0 / bluray_compat=0 / constrained_intra=0 / bframes=6 / b_pyramid=2 / b_adapt=2 / b_bias=1 / direct=3 / weightb=1 / open_gop=0 / weightp=1 / keyint=240 / keyint_min=24 / scenecut=40 / intra_refresh=0 / rc_lookahead=40 / rc=crf / mbtree=1 / crf=18.0 / qcomp=0.60 / qpmin=0 / qpmax=69 / qpstep=4 / vbv_maxrate=30000 / vbv_bufsize=70000 / crf_max=20.0 / nal_hrd=none / filler=0 / ip_ratio=1.40 / aq=2:0.80

Язык : English

Default : Да

Forced : Нет



Аудио

Идентификатор : 2

Формат : AC-3

Формат/Информация : Audio Coding 3

Расширение режима : CM (complete main)

Параметр Endianness формата : Big

Идентификатор кодека : A_AC3

Продолжительность : 1 ч. 3 м.

Вид битрейта : Постоянный

Битрейт : 448 Кбит/сек

Каналы : 6 каналов

Расположение каналов : Front: L C R, Side: L R, LFE

Частота : 48,0 КГц

Битовая глубина : 16 бит

Метод сжатия : С потерями

Размер потока : 202 Мбайт (8%)

Заголовок : sound

Язык : Russian

Default : Да

Forced : Нет



Текст

Идентификатор : 3

Формат : UTF-8

Идентификатор кодека : S_TEXT/UTF8

Идентификатор кодека/Информация : UTF-8 Plain Text

Заголовок : sub

Язык : Russian

Default : Да

Forced : Нет





x264avs [info]: 1432x1080p 1:1 @ 25/1 fps (cfr)

x264 [info]: using SAR=1/1

x264 [info]: using cpu capabilities: MMX2 SSE2Fast SSSE3 SSE4.2 AVX FMA3 BMI2 AVX2

x264 [info]: profile High, level 4.1, 4:2:0, 8-bit

x264 [info]: frame I:508 Avg QP:15.56 size:118138

x264 [info]: frame P:25406 Avg QP:18.72 size: 58614

x264 [info]: frame B:68846 Avg QP:21.30 size: 13402

x264 [info]: consecutive B-frames: 2.5% 4.7% 12.8% 52.6% 14.9% 12.1% 0.4%

x264 [info]: mb I I16..4: 13.5% 74.2% 12.3%

x264 [info]: mb P I16..4: 8.4% 19.9% 1.4% P16..4: 39.5% 17.9% 9.5% 0.4% 0.1% skip: 3.0%

x264 [info]: mb B I16..4: 0.7% 1.4% 0.1% B16..8: 38.5% 8.0% 1.6% direct:

5.6% skip:44.1% L0:39.1% L1:47.8% BI:13.1%

x264 [info]: 8x8 transform intra:66.6% inter:69.0%

x264 [info]: direct mvs spatial:100.0% temporal:0.0%

x264 [info]: coded y,uvDC,uvAC intra: 50.4% 55.8% 22.4% inter: 21.3% 23.1% 2.6%

x264 [info]: i16 v,h,dc,p: 45% 21% 13% 21%

x264 [info]: i8 v,h,dc,ddl,ddr,vr,hd,vl,hu: 15% 11% 16% 7% 9% 11% 10% 10% 11%

x264 [info]: i4 v,h,dc,ddl,ddr,vr,hd,vl,hu: 16% 11% 7% 7% 12% 13% 13% 10% 11%

x264 [info]: i8c dc,h,v,p: 47% 22% 20% 11%

x264 [info]: Weighted P-Frames: Y:6.6% UV:3.0%

x264 [info]: ref P L0: 73.3% 15.1% 6.8% 4.7% 0.1%

x264 [info]: ref B L0: 92.1% 5.7% 1.6% 0.5%

x264 [info]: ref B L1: 98.5% 1.5%

x264 [info]: kb/s:5217.02

Discussion

Comments 0

Post Your Comment

Files in this torrent

FILENAMESIZE
GiB_s1_1080.mkv2.3 GB
GiB_s2_1080.mkv2.9 GB
GiB_s3_1080.mkv2.2 GB
GiB_s4_1080.mkv2.9 GB
GiB_s5_1080.mkv2.5 GB

Alternative Torrents for 'Гостья из будущего AI Upscale'.

TORRENT NAMEADDEDSIZESEEDSPEERSHEALTH
7/21/202012.8 GB00