Godzilla (1998) (1080p BDRip X265 10bit EAC3 5.1 - R0b0t) [TAoE]

Torrent Details


Godzilla (1998) (1080p BDRip x265 10bit EAC3 5.1 - r0b0t) <span style=color:#fc9c6d>[TAoE]</span>

NAME
Godzilla (1998) (1080p BDRip x265 10bit EAC3 5.1 - r0b0t) [TAoE].torrent
CATEGORY
Movies
INFOHASH
27f4f4205161465de317eb658268a2075a503a27
SIZE
10.9 GB in 1 file
ADDED
Uploaded on 21-07-2020 by our crawler pet called "Spidey".
SWARM
0 seeders & 1 peers
RATING
No votes yet.

Please login to vote for this torrent.


Description



Hello everyone,

We are TAoE, a small team of passionate encoders who love encoding. We try our best to provide you with high quality releases.



Requests for movies and shows are welcome.

We have a form for encode requests which can be found here

Encode requests form

submit your request and it will be added to our encoding request list

You can view our encoding request list here

Encode requests list





When or if we encode it will depend on if we can obtain a good source to encode with and

if one of the TAoE encoders chooses to encode it. Unfortunately we are not able to encode everything,

new members are welcome as that helps us encode more content!



If you would like to join TAoE submit your request here!

TAoE member applications form









Godzilla (1998) IMDB















Source

Godzilla.1998.BluRay.1080p.TrueHD.Atmos.7.1.AVC.HYBRID.REMUX-FraMeSToR



Media Information

General

Unique ID                   : 20769901614267417392384800515442507215 (0xFA023363873D734A9FA76183F167DCF)

Complete name               : Godzilla (1998) (1080p BDRip x265 10bit EAC3 5.1 - r0b0t) [TAoE].mkv

Format                      : Matroska

Format version              : Version 4

File size                   : 10.9 GiB

Duration                    : 2 h 18 min

Overall bit rate            : 11.3 Mb/s

Writing application         : Lavf58.29.100

Writing library             : Lavf58.29.100

ErrorDetectionType          : Per level 1

IMDB                        : tt0120685

TMDB                        : movie/929



Video

ID                          : 1

Format                      : HEVC

Format/Info                 : High Efficiency Video Coding

Format profile              : Main [email protected]@Main

Codec ID                    : V_MPEGH/ISO/HEVC

Duration                    : 2 h 18 min

Bit rate                    : 9 883 kb/s

Width                       : 1 920 pixels

Height                      : 800 pixels

Display aspect ratio        : 2.40:1

Frame rate mode             : Variable

Frame rate                  : 23.976 FPS

Color space                 : YUV

Chroma subsampling          : 4:2:0

Bit depth                   : 10 bits

Bits/(Pixel*Frame)          : 0.268

Stream size                 : 9.58 GiB (88%)

Title                       : Encoded by r0b0t for TAoE using Shinguru V1.9

Writing library             : x265 3.2+35-acc5d16999e2:[Windows][GCC 9.2.1][64 bit] 10bit

Encoding settings           : cpuid=1111039 / frame-threads=5 / numa-pools=12,12,12,12 / wpp / no-pmode / no-pme / no-psnr / no-ssim / log-level=2 / input-csp=1 / input-res=1920x800 / interlace=0 / total-frames=0 / level-idc=0 / high-tier=1 / uhd-bd=0 / ref=4 / no-allow-non-conformance / no-repeat-headers / annexb / no-aud / no-hrd / info / hash=0 / no-temporal-layers / open-gop / min-keyint=23 / keyint=250 / gop-lookahead=0 / bframes=8 / b-adapt=2 / b-pyramid / bframe-bias=0 / rc-lookahead=80 / lookahead-slices=4 / scenecut=40 / hist-scenecut=0 / radl=0 / no-splice / no-intra-refresh / ctu=64 / min-cu-size=8 / no-rect / no-amp / max-tu-size=32 / tu-inter-depth=1 / tu-intra-depth=1 / limit-tu=0 / rdoq-level=2 / dynamic-rd=0.00 / no-ssim-rd / signhide / no-tskip / nr-intra=0 / nr-inter=0 / no-constrained-intra / no-strong-intra-smoothing / max-merge=3 / limit-refs=3 / limit-modes / me=3 / subme=5 / merange=57 / temporal-mvp / no-frame-dup / no-hme / weightp / no-weightb / no-analyze-src-pics / deblock=0:0 / sao / no-sao-non-deblock / rd=4 / selective-sao=4 / no-early-skip / rskip / no-fast-intra / no-tskip-fast / no-cu-lossless / no-b-intra / no-splitrd-skip / rdpenalty=0 / psy-rd=1.30 / psy-rdoq=2.00 / no-rd-refine / no-lossless / cbqpoffs=0 / crqpoffs=0 / rc=crf / crf=19.0 / qcomp=0.60 / qpstep=4 / stats-write=0 / stats-read=0 / ipratio=1.40 / pbratio=1.30 / aq-mode=4 / aq-strength=1.10 / cutree / zone-count=0 / no-strict-cbr / qg-size=32 / no-rc-grain / qpmax=69 / qpmin=0 / no-const-vbv / sar=1 / overscan=0 / videoformat=5 / range=0 / colorprim=2 / transfer=2 / colormatrix=2 / chromaloc=0 / display-window=0 / cll=0,0 / min-luma=0 / max-luma=1023 / log2-max-poc-lsb=8 / vui-timing-info / vui-hrd-info / slices=1 / no-opt-qp-pps / no-opt-ref-list-length-pps / no-multi-pass-opt-rps / scenecut-bias=0.05 / hist-threshold=0.01 / no-opt-cu-delta-qp / no-aq-motion / no-hdr10 / no-hdr10-opt / no-dhdr10-opt / no-idr-recovery-sei / analysis-reuse-level=0 / analysis-save-reuse-level=0 / analysis-load-reuse-level=0 / scale-factor=0 / refine-intra=0 / refine-inter=0 / refine-mv=1 / refine-ctu-distortion=0 / no-limit-sao / ctu-info=0 / no-lowpass-dct / refine-analysis-type=0 / copy-pic=1 / max-ausize-factor=1.0 / no-dynamic-refine / no-single-sei / no-hevc-aq / no-svt / no-field / qp-adaptation-range=1.00 / no-scenecut-aware-qpconformance-window-offsets / right=0 / bottom=0

Default                     : Yes

Forced                      : No

Color range                 : Limited



Audio #1

ID                          : 2

Format                      : E-AC-3

Format/Info                 : Enhanced AC-3

Commercial name             : Dolby Digital Plus

Codec ID                    : A_EAC3

Duration                    : 2 h 18 min

Bit rate mode               : Constant

Bit rate                    : 448 kb/s

Channel(s)                  : 6 channels

Channel layout              : L R C LFE Ls Rs

Sampling rate               : 48.0 kHz

Frame rate                  : 31.250 FPS (1536 SPF)

Bit depth                   : 24 bits

Compression mode            : Lossy

Stream size                 : 445 MiB (4%)

Writing library             : Lavc58.54.100 eac3

Language                    : English

Service kind                : Complete Main

Default                     : Yes

Forced                      : No



Audio #2

ID                          : 3

Format                      : E-AC-3

Format/Info                 : Enhanced AC-3

Commercial name             : Dolby Digital Plus

Codec ID                    : A_EAC3

Duration                    : 2 h 18 min

Bit rate mode               : Constant

Bit rate                    : 192 kb/s

Channel(s)                  : 2 channels

Channel layout              : L R

Sampling rate               : 48.0 kHz

Frame rate                  : 31.250 FPS (1536 SPF)

Bit depth                   : 32 bits

Compression mode            : Lossy

Stream size                 : 191 MiB (2%)

Title                       : Commentary by Visual Effects Supervisor Volker Engel and Associate Visual Effects Supervisor Karen Goulekas

Writing library             : Lavc58.54.100 eac3

Language                    : English

Service kind                : Complete Main

Default                     : No

Forced                      : No



Text #1

ID                          : 4

Format                      : PGS

Codec ID                    : S_HDMV/PGS

Codec ID/Info               : Picture based subtitle format used on BDs/HD-DVDs

Duration                    : 1 h 23 min

Bit rate                    : 448 b/s

Count of elements           : 36

Stream size                 : 273 KiB (0%)

Title                       : English (Forced)

Language                    : English

Default                     : Yes

Forced                      : Yes



Text #2

ID                          : 5

Format                      : PGS

Codec ID                    : S_HDMV/PGS

Codec ID/Info               : Picture based subtitle format used on BDs/HD-DVDs

Duration                    : 2 h 1 min

Bit rate                    : 26.4 kb/s

Count of elements           : 2084

Stream size                 : 23.0 MiB (0%)

Title                       : English

Language                    : English

Default                     : No

Forced                      : No



Text #3

ID                          : 6

Format                      : PGS

Codec ID                    : S_HDMV/PGS

Codec ID/Info               : Picture based subtitle format used on BDs/HD-DVDs

Duration                    : 2 h 17 min

Bit rate                    : 30.2 kb/s

Count of elements           : 3142

Stream size                 : 29.7 MiB (0%)

Title                       : English (SDH)

Language                    : English

Default                     : No

Forced                      : No



Text #4

ID                          : 7

Format                      : PGS

Codec ID                    : S_HDMV/PGS

Codec ID/Info               : Picture based subtitle format used on BDs/HD-DVDs

Duration                    : 2 h 8 min

Bit rate                    : 11.4 kb/s

Count of elements           : 1692

Stream size                 : 10.5 MiB (0%)

Title                       : Arabic

Language                    : Arabic

Default                     : No

Forced                      : No



Text #5

ID                          : 8

Format                      : PGS

Codec ID                    : S_HDMV/PGS

Codec ID/Info               : Picture based subtitle format used on BDs/HD-DVDs

Duration                    : 2 h 8 min

Bit rate                    : 17.0 kb/s

Count of elements           : 1750

Stream size                 : 15.6 MiB (0%)

Title                       : Chinese (Simplified)

Language                    : Chinese

Default                     : No

Forced                      : No



Text #6

ID                          : 9

Format                      : PGS

Codec ID                    : S_HDMV/PGS

Codec ID/Info               : Picture based subtitle format used on BDs/HD-DVDs

Duration                    : 2 h 8 min

Bit rate                    : 17.7 kb/s

Count of elements           : 1748

Stream size                 : 16.2 MiB (0%)

Title                       : Chinese (Traditional)

Language                    : Chinese

Default                     : No

Forced                      : No



Text #7

ID                          : 10

Format                      : PGS

Codec ID                    : S_HDMV/PGS

Codec ID/Info               : Picture based subtitle format used on BDs/HD-DVDs

Duration                    : 2 h 8 min

Bit rate                    : 17.2 kb/s

Count of elements           : 1680

Stream size                 : 15.8 MiB (0%)

Title                       : Czech

Language                    : Czech

Default                     : No

Forced                      : No



Text #8

ID                          : 11

Format                      : PGS

Codec ID                    : S_HDMV/PGS

Codec ID/Info               : Picture based subtitle format used on BDs/HD-DVDs

Duration                    : 2 h 5 min

Bit rate                    : 17.5 kb/s

Count of elements           : 1580

Stream size                 : 15.7 MiB (0%)

Title                       : Danish

Language                    : Danish

Default                     : No

Forced                      : No



Text #9

ID                          : 12

Format                      : PGS

Codec ID                    : S_HDMV/PGS

Codec ID/Info               : Picture based subtitle format used on BDs/HD-DVDs

Duration                    : 2 h 8 min

Bit rate                    : 19.0 kb/s

Count of elements           : 1672

Stream size                 : 17.5 MiB (0%)

Title                       : Dutch

Language                    : Dutch

Default                     : No

Forced                      : No



Text #10

ID                          : 13

Format                      : PGS

Codec ID                    : S_HDMV/PGS

Codec ID/Info               : Picture based subtitle format used on BDs/HD-DVDs

Duration                    : 2 h 5 min

Bit rate                    : 19.2 kb/s

Count of elements           : 1630

Stream size                 : 17.2 MiB (0%)

Title                       : Finnish

Language                    : Finnish

Default                     : No

Forced                      : No



Text #11

ID                          : 14

Format                      : PGS

Codec ID                    : S_HDMV/PGS

Codec ID/Info               : Picture based subtitle format used on BDs/HD-DVDs

Duration                    : 2 h 14 min

Bit rate                    : 17.0 kb/s

Count of elements           : 1766

Stream size                 : 16.4 MiB (0%)

Title                       : French

Language                    : French

Default                     : No

Forced                      : No



Text #12

ID                          : 15

Format                      : PGS

Codec ID                    : S_HDMV/PGS

Codec ID/Info               : Picture based subtitle format used on BDs/HD-DVDs

Duration                    : 2 h 8 min

Bit rate                    : 19.8 kb/s

Count of elements           : 1676

Stream size                 : 18.2 MiB (0%)

Title                       : German

Language                    : German

Default                     : No

Forced                      : No



Text #13

ID                          : 16

Format                      : PGS

Codec ID                    : S_HDMV/PGS

Codec ID/Info               : Picture based subtitle format used on BDs/HD-DVDs

Duration                    : 2 h 9 min

Bit rate                    : 18.7 kb/s

Count of elements           : 1612

Stream size                 : 17.3 MiB (0%)

Title                       : Greek

Language                    : Greek

Default                     : No

Forced                      : No



Text #14

ID                          : 17

Format                      : PGS

Codec ID                    : S_HDMV/PGS

Codec ID/Info               : Picture based subtitle format used on BDs/HD-DVDs

Duration                    : 2 h 8 min

Bit rate                    : 14.3 kb/s

Count of elements           : 1692

Stream size                 : 13.1 MiB (0%)

Title                       : Hindi

Language                    : Hindi

Default                     : No

Forced                      : No



Text #15

ID                          : 18

Format                      : PGS

Codec ID                    : S_HDMV/PGS

Codec ID/Info               : Picture based subtitle format used on BDs/HD-DVDs

Duration                    : 2 h 8 min

Bit rate                    : 19.4 kb/s

Count of elements           : 1692

Stream size                 : 17.9 MiB (0%)

Title                       : Hungarian

Language                    : Hungarian

Default                     : No

Forced                      : No



Text #16

ID                          : 19

Format                      : PGS

Codec ID                    : S_HDMV/PGS

Codec ID/Info               : Picture based subtitle format used on BDs/HD-DVDs

Duration                    : 2 h 8 min

Bit rate                    : 19.5 kb/s

Count of elements           : 1684

Stream size                 : 17.9 MiB (0%)

Title                       : Italian

Language                    : Italian

Default                     : No

Forced                      : No



Text #17

ID                          : 20

Format                      : PGS

Codec ID                    : S_HDMV/PGS

Codec ID/Info               : Picture based subtitle format used on BDs/HD-DVDs

Duration                    : 2 h 8 min

Bit rate                    : 16.4 kb/s

Count of elements           : 1608

Stream size                 : 15.1 MiB (0%)

Title                       : Korean

Language                    : Korean

Default                     : No

Forced                      : No



Text #18

ID                          : 21

Format                      : PGS

Codec ID                    : S_HDMV/PGS

Codec ID/Info               : Picture based subtitle format used on BDs/HD-DVDs

Duration                    : 2 h 5 min

Bit rate                    : 18.2 kb/s

Count of elements           : 1586

Stream size                 : 16.3 MiB (0%)

Title                       : Norwegian

Language                    : Norwegian

Default                     : No

Forced                      : No



Text #19

ID                          : 22

Format                      : PGS

Codec ID                    : S_HDMV/PGS

Codec ID/Info               : Picture based subtitle format used on BDs/HD-DVDs

Duration                    : 2 h 8 min

Bit rate                    : 18.1 kb/s

Count of elements           : 1688

Stream size                 : 16.6 MiB (0%)

Title                       : Polish

Language                    : Polish

Default                     : No

Forced                      : No



Text #20

ID                          : 23

Format                      : PGS

Codec ID                    : S_HDMV/PGS

Codec ID/Info               : Picture based subtitle format used on BDs/HD-DVDs

Duration                    : 2 h 8 min

Bit rate                    : 22.7 kb/s

Count of elements           : 2062

Stream size                 : 20.8 MiB (0%)

Title                       : Portuguese (Brazilian)

Language                    : Portuguese

Default                     : No

Forced                      : No



Text #21

ID                          : 24

Format                      : PGS

Codec ID                    : S_HDMV/PGS

Codec ID/Info               : Picture based subtitle format used on BDs/HD-DVDs

Duration                    : 2 h 17 min

Bit rate                    : 19.1 kb/s

Count of elements           : 1788

Stream size                 : 18.9 MiB (0%)

Title                       : Portuguese (Iberian)

Language                    : Portuguese

Default                     : No

Forced                      : No



Text #22

ID                          : 25

Format                      : PGS

Codec ID                    : S_HDMV/PGS

Codec ID/Info               : Picture based subtitle format used on BDs/HD-DVDs

Duration                    : 2 h 17 min

Bit rate                    : 17.7 kb/s

Count of elements           : 1688

Stream size                 : 17.5 MiB (0%)

Title                       : Romanian

Language                    : Romanian

Default                     : No

Forced                      : No



Text #23

ID                          : 26

Format                      : PGS

Codec ID                    : S_HDMV/PGS

Codec ID/Info               : Picture based subtitle format used on BDs/HD-DVDs

Duration                    : 2 h 8 min

Bit rate                    : 19.4 kb/s

Count of elements           : 1714

Stream size                 : 17.8 MiB (0%)

Title                       : Russian

Language                    : Russian

Default                     : No

Forced                      : No



Text #24

ID                          : 27

Format                      : PGS

Codec ID                    : S_HDMV/PGS

Codec ID/Info               : Picture based subtitle format used on BDs/HD-DVDs

Duration                    : 2 h 8 min

Bit rate                    : 18.5 kb/s

Count of elements           : 1686

Stream size                 : 17.0 MiB (0%)

Title                       : Slovak

Language                    : Slovak

Default                     : No

Forced                      : No



Text #25

ID                          : 28

Format                      : PGS

Codec ID                    : S_HDMV/PGS

Codec ID/Info               : Picture based subtitle format used on BDs/HD-DVDs

Duration                    : 2 h 8 min

Bit rate                    : 17.0 kb/s

Count of elements           : 1690

Stream size                 : 15.6 MiB (0%)

Title                       : Slovenian

Language                    : Slovenian

Default                     : No

Forced                      : No



Text #26

ID                          : 29

Format                      : PGS

Codec ID                    : S_HDMV/PGS

Codec ID/Info               : Picture based subtitle format used on BDs/HD-DVDs

Duration                    : 2 h 8 min

Bit rate                    : 19.1 kb/s

Count of elements           : 1670

Stream size                 : 17.5 MiB (0%)

Title                       : Spanish (Castilian)

Language                    : Spanish

Default                     : No

Forced                      : No



Text #27

ID                          : 30

Format                      : PGS

Codec ID                    : S_HDMV/PGS

Codec ID/Info               : Picture based subtitle format used on BDs/HD-DVDs

Duration                    : 2 h 8 min

Bit rate                    : 23.5 kb/s

Count of elements           : 2534

Stream size                 : 21.5 MiB (0%)

Title                       : Spanish (Latin American)

Language                    : Spanish

Default                     : No

Forced                      : No



Text #28

ID                          : 31

Format                      : PGS

Codec ID                    : S_HDMV/PGS

Codec ID/Info               : Picture based subtitle format used on BDs/HD-DVDs

Duration                    : 2 h 5 min

Bit rate                    : 16.3 kb/s

Count of elements           : 1622

Stream size                 : 14.6 MiB (0%)

Title                       : Swedish

Language                    : Swedish

Default                     : No

Forced                      : No



Text #29

ID                          : 32

Format                      : PGS

Codec ID                    : S_HDMV/PGS

Codec ID/Info               : Picture based subtitle format used on BDs/HD-DVDs

Duration                    : 2 h 8 min

Bit rate                    : 20.0 kb/s

Count of elements           : 1694

Stream size                 : 18.4 MiB (0%)

Title                       : Thai

Language                    : Thai

Default                     : No

Forced                      : No



Text #30

ID                          : 33

Format                      : PGS

Codec ID                    : S_HDMV/PGS

Codec ID/Info               : Picture based subtitle format used on BDs/HD-DVDs

Duration                    : 2 h 8 min

Bit rate                    : 20.0 kb/s

Count of elements           : 1684

Stream size                 : 18.3 MiB (0%)

Title                       : Turkish

Language                    : Turkish

Default                     : No

Forced                      : No



Text #31

ID                          : 34

Format                      : PGS

Codec ID                    : S_HDMV/PGS

Codec ID/Info               : Picture based subtitle format used on BDs/HD-DVDs

Duration                    : 2 h 17 min

Bit rate                    : 17.5 kb/s

Count of elements           : 1700

Stream size                 : 17.3 MiB (0%)

Title                       : Ukrainian

Language                    : Ukrainian

Default                     : No

Forced                      : No



Text #32

ID                          : 35

Format                      : PGS

Codec ID                    : S_HDMV/PGS

Codec ID/Info               : Picture based subtitle format used on BDs/HD-DVDs

Duration                    : 2 h 12 min

Bit rate                    : 48.1 kb/s

Count of elements           : 3379

Stream size                 : 45.7 MiB (0%)

Title                       : English (Commentary)

Language                    : English

Default                     : No

Forced                      : No



Text #33

ID                          : 36

Format                      : PGS

Codec ID                    : S_HDMV/PGS

Codec ID/Info               : Picture based subtitle format used on BDs/HD-DVDs

Duration                    : 2 h 12 min

Bit rate                    : 38.0 kb/s

Count of elements           : 2547

Stream size                 : 36.1 MiB (0%)

Title                       : Dutch (Commentary)

Language                    : Dutch

Default                     : No

Forced                      : No



Text #34

ID                          : 37

Format                      : PGS

Codec ID                    : S_HDMV/PGS

Codec ID/Info               : Picture based subtitle format used on BDs/HD-DVDs

Duration                    : 2 h 12 min

Bit rate                    : 37.6 kb/s

Count of elements           : 2684

Stream size                 : 35.7 MiB (0%)

Title                       : French (Commentary)

Language                    : French

Default                     : No

Forced                      : No



Text #35

ID                          : 38

Format                      : PGS

Codec ID                    : S_HDMV/PGS

Codec ID/Info               : Picture based subtitle format used on BDs/HD-DVDs

Duration                    : 2 h 12 min

Bit rate                    : 40.1 kb/s

Count of elements           : 2622

Stream size                 : 38.1 MiB (0%)

Title                       : German (Commentary)

Language                    : German

Default                     : No

Forced                      : No



Text #36

ID                          : 39

Format                      : PGS

Codec ID                    : S_HDMV/PGS

Codec ID/Info               : Picture based subtitle format used on BDs/HD-DVDs

Duration                    : 2 h 12 min

Bit rate                    : 36.7 kb/s

Count of elements           : 2534

Stream size                 : 34.8 MiB (0%)

Title                       : Italian (Commentary)

Language                    : Italian

Default                     : No

Forced                      : No



Text #37

ID                          : 40

Format                      : PGS

Codec ID                    : S_HDMV/PGS

Codec ID/Info               : Picture based subtitle format used on BDs/HD-DVDs

Duration                    : 2 h 12 min

Bit rate                    : 40.2 kb/s

Count of elements           : 2710

Stream size                 : 38.2 MiB (0%)

Title                       : Spanish (Castilian) (Commentary)

Language                    : Spanish

Default                     : No

Forced                      : No



Menu

00:00:00.000                : :Start

00:03:48.311                : :Collision Course

00:05:37.837                : :Worm Guy

00:07:48.426                : :'Gojira'

00:09:20.185                : :Inside a Footprint

00:15:29.846                : :Insurance Claim

00:17:26.295                : :Caught on Something

00:23:40.210                : :'I Got a Bite'

00:25:28.235                : :New Kid in Town

00:38:28.306                : :23Rd St. Station

00:42:34.135                : :Drawing Him Out

00:48:19.730                : :Fire at Will: One

00:51:16.824                : :Copter Chase

00:56:49.239                : :'He's Pregnant'

01:17:46.829                : :Shaken, Not Stirred

01:20:45.340                : :Section Five

01:23:11.361                : :Fire at Will: Two

01:24:26.770                : :Torpedo Run

01:29:14.474                : :The Nest

01:36:25.321                : :Like Father, Like Sons

01:39:05.064                : :'Wrong Floor'

01:49:11.754                : :'Not This Way'

01:50:24.159                : :Garden Party

01:55:33.096                : :Cab Chase

01:58:47.037                : :Park Avenue Tunnel

02:00:36.771                : :Brooklyn Bridge

02:02:45.066                : :Fire at Will: Three

02:05:56.883                : :Au Revoir



Source Information

General

Unique ID                   : 51621480903238521771872559283578029755 (0x26D5EF82778342C26264553ADAEF46BB)

Complete name               : Godzilla.1998.BluRay.1080p.TrueHD.Atmos.7.1.AVC.HYBRID.REMUX-FraMeSToR (1).mkv

Format                      : Matroska

Format version              : Version 4

File size                   : 38.2 GiB

Duration                    : 2 h 18 min

Overall bit rate mode       : Variable

Overall bit rate            : 39.5 Mb/s

Encoded date                : UTC 2020-07-20 01:42:20

Writing application         : mkvmerge v44.0.0 ('Domino') 64-bit

Writing library             : libebml v1.3.10 + libmatroska v1.5.2

IMDB                        : tt0120685

TMDB                        : movie/929



Video

ID                          : 1

Format                      : AVC

Format/Info                 : Advanced Video Codec

Format profile              : [email protected]

Format settings             : CABAC / 2 Ref Frames

Format settings, CABAC      : Yes

Format settings, Reference  : 2 frames

Format settings, GOP        : M=1, N=10

Codec ID                    : V_MPEG4/ISO/AVC

Duration                    : 2 h 18 min

Bit rate mode               : Variable

Bit rate                    : 34.7 Mb/s

Width                       : 1 920 pixels

Height                      : 1 080 pixels

Display aspect ratio        : 16:9

Frame rate mode             : Constant

Frame rate                  : 23.976 (24000/1001) FPS

Color space                 : YUV

Chroma subsampling          : 4:2:0

Bit depth                   : 8 bits

Scan type                   : Progressive

Bits/(Pixel*Frame)          : 0.698

Stream size                 : 33.6 GiB (88%)

Default                     : Yes

Forced                      : No



Audio #1

ID                          : 2

Format                      : MLP FBA 16-ch

Format/Info                 : Meridian Lossless Packing FBA with 16-channel presentation

Commercial name             : Dolby TrueHD with Dolby Atmos

Codec ID                    : A_TRUEHD

Duration                    : 2 h 18 min

Bit rate mode               : Variable

Bit rate                    : 4 138 kb/s

Maximum bit rate            : 6 384 kb/s

Channel(s)                  : 8 channels

Channel layout              : L R C LFE Ls Rs Lb Rb

Sampling rate               : 48.0 kHz

Frame rate                  : 1 200.000 FPS (40 SPF)

Compression mode            : Lossless

Stream size                 : 4.01 GiB (10%)

Language                    : English

Default                     : Yes

Forced                      : No

Number of dynamic objects   : 11

Bed channel count           : 1 channel

Bed channel configuration   : LFE



Audio #2

ID                          : 3

Format                      : AC-3

Format/Info                 : Audio Coding 3

Commercial name             : Dolby Digital

Codec ID                    : A_AC3

Duration                    : 2 h 18 min

Bit rate mode               : Constant

Bit rate                    : 192 kb/s

Channel(s)                  : 2 channels

Channel layout              : L R

Sampling rate               : 48.0 kHz

Frame rate                  : 31.250 FPS (1536 SPF)

Compression mode            : Lossy

Stream size                 : 191 MiB (0%)

Title                       : Commentary by Visual Effects Supervisor Volker Engel and Associate Visual Effects Supervisor Karen Goulekas

Language                    : English

Service kind                : Complete Main

Default                     : No

Forced                      : No



Text #1

ID                          : 4

Format                      : PGS

Muxing mode                 : zlib

Codec ID                    : S_HDMV/PGS

Codec ID/Info               : Picture based subtitle format used on BDs/HD-DVDs

Duration                    : 1 h 23 min

Bit rate                    : 448 b/s

Count of elements           : 36

Stream size                 : 273 KiB (0%)

Title                       : English (Forced)

Language                    : English

Default                     : Yes

Forced                      : Yes



Text #2

ID                          : 5

Format                      : PGS

Muxing mode                 : zlib

Codec ID                    : S_HDMV/PGS

Codec ID/Info               : Picture based subtitle format used on BDs/HD-DVDs

Duration                    : 2 h 1 min

Bit rate                    : 26.4 kb/s

Count of elements           : 2084

Stream size                 : 23.0 MiB (0%)

Title                       : English

Language                    : English

Default                     : No

Forced                      : No



Text #3

ID                          : 6

Format                      : PGS

Muxing mode                 : zlib

Codec ID                    : S_HDMV/PGS

Codec ID/Info               : Picture based subtitle format used on BDs/HD-DVDs

Duration                    : 2 h 17 min

Bit rate                    : 30.2 kb/s

Count of elements           : 3142

Stream size                 : 29.7 MiB (0%)

Title                       : English (SDH)

Language                    : English

Default                     : No

Forced                      : No



Text #4

ID                          : 7

Format                      : PGS

Muxing mode                 : zlib

Codec ID                    : S_HDMV/PGS

Codec ID/Info               : Picture based subtitle format used on BDs/HD-DVDs

Duration                    : 2 h 8 min

Bit rate                    : 11.4 kb/s

Count of elements           : 1692

Stream size                 : 10.5 MiB (0%)

Title                       : Arabic

Language                    : Arabic

Default                     : No

Forced                      : No



Text #5

ID                          : 8

Format                      : PGS

Muxing mode                 : zlib

Codec ID                    : S_HDMV/PGS

Codec ID/Info               : Picture based subtitle format used on BDs/HD-DVDs

Duration                    : 2 h 8 min

Bit rate                    : 17.0 kb/s

Count of elements           : 1750

Stream size                 : 15.6 MiB (0%)

Title                       : Chinese (Simplified)

Language                    : Chinese

Default                     : No

Forced                      : No



Text #6

ID                          : 9

Format                      : PGS

Muxing mode                 : zlib

Codec ID                    : S_HDMV/PGS

Codec ID/Info               : Picture based subtitle format used on BDs/HD-DVDs

Duration                    : 2 h 8 min

Bit rate                    : 17.7 kb/s

Count of elements           : 1748

Stream size                 : 16.2 MiB (0%)

Title                       : Chinese (Traditional)

Language                    : Chinese

Default                     : No

Forced                      : No



Text #7

ID                          : 10

Format                      : PGS

Muxing mode                 : zlib

Codec ID                    : S_HDMV/PGS

Codec ID/Info               : Picture based subtitle format used on BDs/HD-DVDs

Duration                    : 2 h 8 min

Bit rate                    : 17.2 kb/s

Count of elements           : 1680

Stream size                 : 15.8 MiB (0%)

Title                       : Czech

Language                    : Czech

Default                     : No

Forced                      : No



Text #8

ID                          : 11

Format                      : PGS

Muxing mode                 : zlib

Codec ID                    : S_HDMV/PGS

Codec ID/Info               : Picture based subtitle format used on BDs/HD-DVDs

Duration                    : 2 h 5 min

Bit rate                    : 17.5 kb/s

Count of elements           : 1580

Stream size                 : 15.7 MiB (0%)

Title                       : Danish

Language                    : Danish

Default                     : No

Forced                      : No



Text #9

ID                          : 12

Format                      : PGS

Muxing mode                 : zlib

Codec ID                    : S_HDMV/PGS

Codec ID/Info               : Picture based subtitle format used on BDs/HD-DVDs

Duration                    : 2 h 8 min

Bit rate                    : 19.0 kb/s

Count of elements           : 1672

Stream size                 : 17.5 MiB (0%)

Title                       : Dutch

Language                    : Dutch

Default                     : No

Forced                      : No



Text #10

ID                          : 13

Format                      : PGS

Muxing mode                 : zlib

Codec ID                    : S_HDMV/PGS

Codec ID/Info               : Picture based subtitle format used on BDs/HD-DVDs

Duration                    : 2 h 5 min

Bit rate                    : 19.2 kb/s

Count of elements           : 1630

Stream size                 : 17.2 MiB (0%)

Title                       : Finnish

Language                    : Finnish

Default                     : No

Forced                      : No



Text #11

ID                          : 14

Format                      : PGS

Muxing mode                 : zlib

Codec ID                    : S_HDMV/PGS

Codec ID/Info               : Picture based subtitle format used on BDs/HD-DVDs

Duration                    : 2 h 14 min

Bit rate                    : 17.0 kb/s

Count of elements           : 1766

Stream size                 : 16.4 MiB (0%)

Title                       : French

Language                    : French

Default                     : No

Forced                      : No



Text #12

ID                          : 15

Format                      : PGS

Muxing mode                 : zlib

Codec ID                    : S_HDMV/PGS

Codec ID/Info               : Picture based subtitle format used on BDs/HD-DVDs

Duration                    : 2 h 8 min

Bit rate                    : 19.8 kb/s

Count of elements           : 1676

Stream size                 : 18.2 MiB (0%)

Title                       : German

Language                    : German

Default                     : No

Forced                      : No



Text #13

ID                          : 16

Format                      : PGS

Muxing mode                 : zlib

Codec ID                    : S_HDMV/PGS

Codec ID/Info               : Picture based subtitle format used on BDs/HD-DVDs

Duration                    : 2 h 9 min

Bit rate                    : 18.7 kb/s

Count of elements           : 1612

Stream size                 : 17.3 MiB (0%)

Title                       : Greek

Language                    : Greek

Default                     : No

Forced                      : No



Text #14

ID                          : 17

Format                      : PGS

Muxing mode                 : zlib

Codec ID                    : S_HDMV/PGS

Codec ID/Info               : Picture based subtitle format used on BDs/HD-DVDs

Duration                    : 2 h 8 min

Bit rate                    : 14.3 kb/s

Count of elements           : 1692

Stream size                 : 13.1 MiB (0%)

Title                       : Hindi

Language                    : Hindi

Default                     : No

Forced                      : No



Text #15

ID                          : 18

Format                      : PGS

Muxing mode                 : zlib

Codec ID                    : S_HDMV/PGS

Codec ID/Info               : Picture based subtitle format used on BDs/HD-DVDs

Duration                    : 2 h 8 min

Bit rate                    : 19.4 kb/s

Count of elements           : 1692

Stream size                 : 17.9 MiB (0%)

Title                       : Hungarian

Language                    : Hungarian

Default                     : No

Forced                      : No



Text #16

ID                          : 19

Format                      : PGS

Muxing mode                 : zlib

Codec ID                    : S_HDMV/PGS

Codec ID/Info               : Picture based subtitle format used on BDs/HD-DVDs

Duration                    : 2 h 8 min

Bit rate                    : 19.5 kb/s

Count of elements           : 1684

Stream size                 : 17.9 MiB (0%)

Title                       : Italian

Language                    : Italian

Default                     : No

Forced                      : No



Text #17

ID                          : 20

Format                      : PGS

Muxing mode                 : zlib

Codec ID                    : S_HDMV/PGS

Codec ID/Info               : Picture based subtitle format used on BDs/HD-DVDs

Duration                    : 2 h 8 min

Bit rate                    : 16.4 kb/s

Count of elements           : 1608

Stream size                 : 15.1 MiB (0%)

Title                       : Korean

Language                    : Korean

Default                     : No

Forced                      : No



Text #18

ID                          : 21

Format                      : PGS

Muxing mode                 : zlib

Codec ID                    : S_HDMV/PGS

Codec ID/Info               : Picture based subtitle format used on BDs/HD-DVDs

Duration                    : 2 h 5 min

Bit rate                    : 18.2 kb/s

Count of elements           : 1586

Stream size                 : 16.3 MiB (0%)

Title                       : Norwegian

Language                    : Norwegian

Default                     : No

Forced                      : No



Text #19

ID                          : 22

Format                      : PGS

Muxing mode                 : zlib

Codec ID                    : S_HDMV/PGS

Codec ID/Info               : Picture based subtitle format used on BDs/HD-DVDs

Duration                    : 2 h 8 min

Bit rate                    : 18.1 kb/s

Count of elements           : 1688

Stream size                 : 16.6 MiB (0%)

Title                       : Polish

Language                    : Polish

Default                     : No

Forced                      : No



Text #20

ID                          : 23

Format                      : PGS

Muxing mode                 : zlib

Codec ID                    : S_HDMV/PGS

Codec ID/Info               : Picture based subtitle format used on BDs/HD-DVDs

Duration                    : 2 h 8 min

Bit rate                    : 22.7 kb/s

Count of elements           : 2062

Stream size                 : 20.8 MiB (0%)

Title                       : Portuguese (Brazilian)

Language                    : Portuguese

Default                     : No

Forced                      : No



Text #21

ID                          : 24

Format                      : PGS

Muxing mode                 : zlib

Codec ID                    : S_HDMV/PGS

Codec ID/Info               : Picture based subtitle format used on BDs/HD-DVDs

Duration                    : 2 h 17 min

Bit rate                    : 19.1 kb/s

Count of elements           : 1788

Stream size                 : 18.9 MiB (0%)

Title                       : Portuguese (Iberian)

Language                    : Portuguese

Default                     : No

Forced                      : No



Text #22

ID                          : 25

Format                      : PGS

Muxing mode                 : zlib

Codec ID                    : S_HDMV/PGS

Codec ID/Info               : Picture based subtitle format used on BDs/HD-DVDs

Duration                    : 2 h 17 min

Bit rate                    : 17.7 kb/s

Count of elements           : 1688

Stream size                 : 17.5 MiB (0%)

Title                       : Romanian

Language                    : Romanian

Default                     : No

Forced                      : No



Text #23

ID                          : 26

Format                      : PGS

Muxing mode                 : zlib

Codec ID                    : S_HDMV/PGS

Codec ID/Info               : Picture based subtitle format used on BDs/HD-DVDs

Duration                    : 2 h 8 min

Bit rate                    : 19.4 kb/s

Count of elements           : 1714

Stream size                 : 17.8 MiB (0%)

Title                       : Russian

Language                    : Russian

Default                     : No

Forced                      : No



Text #24

ID                          : 27

Format                      : PGS

Muxing mode                 : zlib

Codec ID                    : S_HDMV/PGS

Codec ID/Info               : Picture based subtitle format used on BDs/HD-DVDs

Duration                    : 2 h 8 min

Bit rate                    : 18.5 kb/s

Count of elements           : 1686

Stream size                 : 17.0 MiB (0%)

Title                       : Slovak

Language                    : Slovak

Default                     : No

Forced                      : No



Text #25

ID                          : 28

Format                      : PGS

Muxing mode                 : zlib

Codec ID                    : S_HDMV/PGS

Codec ID/Info               : Picture based subtitle format used on BDs/HD-DVDs

Duration                    : 2 h 8 min

Bit rate                    : 17.0 kb/s

Count of elements           : 1690

Stream size                 : 15.6 MiB (0%)

Title                       : Slovenian

Language                    : Slovenian

Default                     : No

Forced                      : No



Text #26

ID                          : 29

Format                      : PGS

Muxing mode                 : zlib

Codec ID                    : S_HDMV/PGS

Codec ID/Info               : Picture based subtitle format used on BDs/HD-DVDs

Duration                    : 2 h 8 min

Bit rate                    : 19.1 kb/s

Count of elements           : 1670

Stream size                 : 17.5 MiB (0%)

Title                       : Spanish (Castilian)

Language                    : Spanish

Default                     : No

Forced                      : No



Text #27

ID                          : 30

Format                      : PGS

Muxing mode                 : zlib

Codec ID                    : S_HDMV/PGS

Codec ID/Info               : Picture based subtitle format used on BDs/HD-DVDs

Duration                    : 2 h 8 min

Bit rate                    : 23.5 kb/s

Count of elements           : 2534

Stream size                 : 21.5 MiB (0%)

Title                       : Spanish (Latin American)

Language                    : Spanish

Default                     : No

Forced                      : No



Text #28

ID                          : 31

Format                      : PGS

Muxing mode                 : zlib

Codec ID                    : S_HDMV/PGS

Codec ID/Info               : Picture based subtitle format used on BDs/HD-DVDs

Duration                    : 2 h 5 min

Bit rate                    : 16.3 kb/s

Count of elements           : 1622

Stream size                 : 14.6 MiB (0%)

Title                       : Swedish

Language                    : Swedish

Default                     : No

Forced                      : No



Text #29

ID                          : 32

Format                      : PGS

Muxing mode                 : zlib

Codec ID                    : S_HDMV/PGS

Codec ID/Info               : Picture based subtitle format used on BDs/HD-DVDs

Duration                    : 2 h 8 min

Bit rate                    : 20.0 kb/s

Count of elements           : 1694

Stream size                 : 18.4 MiB (0%)

Title                       : Thai

Language                    : Thai

Default                     : No

Forced                      : No



Text #30

ID                          : 33

Format                      : PGS

Muxing mode                 : zlib

Codec ID                    : S_HDMV/PGS

Codec ID/Info               : Picture based subtitle format used on BDs/HD-DVDs

Duration                    : 2 h 8 min

Bit rate                    : 20.0 kb/s

Count of elements           : 1684

Stream size                 : 18.3 MiB (0%)

Title                       : Turkish

Language                    : Turkish

Default                     : No

Forced                      : No



Text #31

ID                          : 34

Format                      : PGS

Muxing mode                 : zlib

Codec ID                    : S_HDMV/PGS

Codec ID/Info               : Picture based subtitle format used on BDs/HD-DVDs

Duration                    : 2 h 17 min

Bit rate                    : 17.5 kb/s

Count of elements           : 1700

Stream size                 : 17.3 MiB (0%)

Title                       : Ukrainian

Language                    : Ukrainian

Default                     : No

Forced                      : No



Text #32

ID                          : 35

Format                      : PGS

Muxing mode                 : zlib

Codec ID                    : S_HDMV/PGS

Codec ID/Info               : Picture based subtitle format used on BDs/HD-DVDs

Duration                    : 2 h 12 min

Bit rate                    : 48.1 kb/s

Count of elements           : 3379

Stream size                 : 45.7 MiB (0%)

Title                       : English (Commentary)

Language                    : English

Default                     : No

Forced                      : No



Text #33

ID                          : 36

Format                      : PGS

Muxing mode                 : zlib

Codec ID                    : S_HDMV/PGS

Codec ID/Info               : Picture based subtitle format used on BDs/HD-DVDs

Duration                    : 2 h 12 min

Bit rate                    : 38.0 kb/s

Count of elements           : 2547

Stream size                 : 36.1 MiB (0%)

Title                       : Dutch (Commentary)

Language                    : Dutch

Default                     : No

Forced                      : No



Text #34

ID                          : 37

Format                      : PGS

Muxing mode                 : zlib

Codec ID                    : S_HDMV/PGS

Codec ID/Info               : Picture based subtitle format used on BDs/HD-DVDs

Duration                    : 2 h 12 min

Bit rate                    : 37.6 kb/s

Count of elements           : 2684

Stream size                 : 35.7 MiB (0%)

Title                       : French (Commentary)

Language                    : French

Default                     : No

Forced                      : No



Text #35

ID                          : 38

Format                      : PGS

Muxing mode                 : zlib

Codec ID                    : S_HDMV/PGS

Codec ID/Info               : Picture based subtitle format used on BDs/HD-DVDs

Duration                    : 2 h 12 min

Bit rate                    : 40.1 kb/s

Count of elements           : 2622

Stream size                 : 38.1 MiB (0%)

Title                       : German (Commentary)

Language                    : German

Default                     : No

Forced                      : No



Text #36

ID                          : 39

Format                      : PGS

Muxing mode                 : zlib

Codec ID                    : S_HDMV/PGS

Codec ID/Info               : Picture based subtitle format used on BDs/HD-DVDs

Duration                    : 2 h 12 min

Bit rate                    : 36.7 kb/s

Count of elements           : 2534

Stream size                 : 34.8 MiB (0%)

Title                       : Italian (Commentary)

Language                    : Italian

Default                     : No

Forced                      : No



Text #37

ID                          : 40

Format                      : PGS

Muxing mode                 : zlib

Codec ID                    : S_HDMV/PGS

Codec ID/Info               : Picture based subtitle format used on BDs/HD-DVDs

Duration                    : 2 h 12 min

Bit rate                    : 40.2 kb/s

Count of elements           : 2710

Stream size                 : 38.2 MiB (0%)

Title                       : Spanish (Castilian) (Commentary)

Language                    : Spanish

Default                     : No

Forced                      : No



Menu

00:00:00.000                : en:Start

00:03:48.311                : en:Collision Course

00:05:37.837                : en:Worm Guy

00:07:48.426                : en:'Gojira'

00:09:20.185                : en:Inside a Footprint

00:15:29.846                : en:Insurance Claim

00:17:26.295                : en:Caught on Something

00:23:40.210                : en:'I Got a Bite'

00:25:28.235                : en:New Kid in Town

00:38:28.306                : en:23Rd St. Station

00:42:34.135                : en:Drawing Him Out

00:48:19.730                : en:Fire at Will: One

00:51:16.824                : en:Copter Chase

00:56:49.239                : en:'He's Pregnant'

01:17:46.829                : en:Shaken, Not Stirred

01:20:45.340                : en:Section Five

01:23:11.361                : en:Fire at Will: Two

01:24:26.770                : en:Torpedo Run

01:29:14.474                : en:The Nest

01:36:25.321                : en:Like Father, Like Sons

01:39:05.064                : en:'Wrong Floor'

01:49:11.754                : en:'Not This Way'

01:50:24.159                : en:Garden Party

01:55:33.096                : en:Cab Chase

01:58:47.037                : en:Park Avenue Tunnel

02:00:36.771                : en:Brooklyn Bridge

02:02:45.066                : en:Fire at Will: Three

02:05:56.883                : en:Au Revoir

Discussion

Comments 0

Post Your Comment

Files in this torrent

FILENAMESIZE
Godzilla (1998) (1080p BDRip x265 10bit EAC3 5.1 - r0b0t) [TAoE].mkv10.9 GB

Alternative Torrents for 'Godzilla bit EAC rbt'.

There are no alternative torrents found.