Ace Ventura - Pet Detective (1994) (1080p BDRip X265 10bit DTS 5.1 - TheSickle)[TAoE]

Torrent Details

Ace Ventura - Pet Detective (1994) (1080p BDRip x265 10bit DTS 5.1 - TheSickle)<span style=color:#fc9c6d>[TAoE]</span>

NAME
Ace Ventura - Pet Detective (1994) (1080p BDRip x265 10bit DTS 5.1 - TheSickle)[TAoE].torrent
CATEGORY
Movies
INFOHASH
a3db2e344c7d87aeb8c65aea3bcc086cf2ef499e
SIZE
9.9 GB in 1 file
ADDED
Uploaded on 21-07-2020 by our crawler pet called "Spidey".
SWARM
0 seeders & 5 peers
RATING
No votes yet.

Please login to vote for this torrent.


Description



Hello everyone,

We are TAoE, a small team of passionate encoders who love encoding. We try our best to provide you with high quality releases.



Requests for movies and shows are welcome.

We have a form for encode requests which can be found here

Encode requests form

submit your request and it will be added to our encoding request list

You can view our encoding request list here

Encode requests list





When or if we encode it will depend on if we can obtain a good source to encode with and

if one of the TAoE encoders chooses to encode it. Unfortunately we are not able to encode everything,

new members are welcome as that helps us encode more content!



If you would like to join TAoE submit your request here!

TAoE member applications form









Ace Ventura: Pet Detective (1994) IMDB





















Source

Ace.Ventura.Pet.Detective.1994.REMUX.1080p.Blu-ray.AVC.DTS-HD.MA.5.1-LEGi0N (16GB)





Media Information



General

Unique ID                                : 67027280894193281900800040428921014833 (0x326CFC17B0EEA5C0E998259E6DF9CA31)

Complete name                            : Ace Ventura - Pet Detective (1994) (1080p BDRip x265 10bit DTS 5.1 - TheSickle)[TAoE].mkv

Format                                   : Matroska

Format version                           : Version 4

File size                                : 9.90 GiB

Duration                                 : 1 h 26 min

Overall bit rate mode                    : Variable

Overall bit rate                         : 16.5 Mb/s

Movie name                               : Ace Ventura - Pet Detective (1994) (1080p BDRip x265 10bit DTS 5.1 - TheSickle)[TAoE].mkv

Writing application                      : Lavf58.29.100

Writing library                          : Lavf58.29.100

ErrorDetectionType                       : Per level 1



Video

ID                                       : 1

Format                                   : HEVC

Format/Info                              : High Efficiency Video Coding

Format profile                           : Main [email protected]@Main

Codec ID                                 : V_MPEGH/ISO/HEVC

Duration                                 : 1 h 26 min

Bit rate                                 : 11.7 Mb/s

Width                                    : 1 920 pixels

Height                                   : 1 080 pixels

Display aspect ratio                     : 16:9

Frame rate mode                          : Constant

Frame rate                               : 23.976 (24000/1001) FPS

Color space                              : YUV

Chroma subsampling                       : 4:2:0

Bit depth                                : 10 bits

Bits/(Pixel*Frame)                       : 0.236

Stream size                              : 7.05 GiB (71%)

Title                                    : Encoded by TheSickle for TAoE using Hiru V1.2

Writing library                          : x265 3.2+35-acc5d16999e2:[Windows][GCC 9.2.1][64 bit] 10bit

Encoding settings                        : cpuid=1111039 / frame-threads=4 / numa-pools=24 / wpp / no-pmode / no-pme / no-psnr / no-ssim / log-level=2 / input-csp=1 / input-res=1920x1080 / interlace=0 / total-frames=0 / level-idc=0 / high-tier=1 / uhd-bd=0 / ref=4 / no-allow-non-conformance / no-repeat-headers / annexb / no-aud / no-hrd / info / hash=0 / no-temporal-layers / open-gop / min-keyint=23 / keyint=250 / gop-lookahead=0 / bframes=8 / b-adapt=2 / b-pyramid / bframe-bias=0 / rc-lookahead=80 / lookahead-slices=4 / scenecut=40 / hist-scenecut=0 / radl=0 / no-splice / no-intra-refresh / ctu=64 / min-cu-size=8 / no-rect / no-amp / max-tu-size=32 / tu-inter-depth=1 / tu-intra-depth=1 / limit-tu=0 / rdoq-level=2 / dynamic-rd=0.00 / no-ssim-rd / signhide / no-tskip / nr-intra=0 / nr-inter=0 / no-constrained-intra / no-strong-intra-smoothing / max-merge=3 / limit-refs=3 / limit-modes / me=3 / subme=5 / merange=57 / temporal-mvp / no-frame-dup / no-hme / weightp / no-weightb / no-analyze-src-pics / deblock=0:0 / sao / no-sao-non-deblock / rd=4 / selective-sao=4 / no-early-skip / rskip / no-fast-intra / no-tskip-fast / no-cu-lossless / no-b-intra / no-splitrd-skip / rdpenalty=0 / psy-rd=1.30 / psy-rdoq=2.00 / no-rd-refine / no-lossless / cbqpoffs=0 / crqpoffs=0 / rc=crf / crf=18.0 / qcomp=0.60 / qpstep=4 / stats-write=0 / stats-read=0 / ipratio=1.40 / pbratio=1.30 / aq-mode=4 / aq-strength=1.10 / cutree / zone-count=0 / no-strict-cbr / qg-size=32 / no-rc-grain / qpmax=69 / qpmin=0 / no-const-vbv / sar=1 / overscan=0 / videoformat=5 / range=0 / colorprim=2 / transfer=2 / colormatrix=2 / chromaloc=0 / display-window=0 / cll=0,0 / min-luma=0 / max-luma=1023 / log2-max-poc-lsb=8 / vui-timing-info / vui-hrd-info / slices=1 / no-opt-qp-pps / no-opt-ref-list-length-pps / no-multi-pass-opt-rps / scenecut-bias=0.05 / hist-threshold=0.01 / no-opt-cu-delta-qp / no-aq-motion / no-hdr10 / no-hdr10-opt / no-dhdr10-opt / no-idr-recovery-sei / analysis-reuse-level=0 / analysis-save-reuse-level=0 / analysis-load-reuse-level=0 / scale-factor=0 / refine-intra=0 / refine-inter=0 / refine-mv=1 / refine-ctu-distortion=0 / no-limit-sao / ctu-info=0 / no-lowpass-dct / refine-analysis-type=0 / copy-pic=1 / max-ausize-factor=1.0 / no-dynamic-refine / no-single-sei / no-hevc-aq / no-svt / no-field / qp-adaptation-range=1.00 / no-scenecut-aware-qpconformance-window-offsets / right=0 / bottom=0

Language                                 : English

Default                                  : Yes

Forced                                   : No

Color range                              : Limited



Audio #1

ID                                       : 2

Format                                   : DTS XLL

Format/Info                              : Digital Theater Systems

Commercial name                          : DTS-HD Master Audio

Codec ID                                 : A_DTS

Duration                                 : 1 h 26 min

Bit rate mode                            : Variable

Bit rate                                 : 4 405 kb/s

Channel(s)                               : 6 channels

Channel layout                           : C L R Ls Rs LFE

Sampling rate                            : 48.0 kHz

Frame rate                               : 93.750 FPS (512 SPF)

Bit depth                                : 24 bits

Compression mode                         : Lossless

Stream size                              : 2.65 GiB (27%)

Language                                 : English

Default                                  : Yes

Forced                                   : No



Audio #2

ID                                       : 3

Format                                   : AC-3

Format/Info                              : Audio Coding 3

Commercial name                          : Dolby Digital

Codec ID                                 : A_AC3

Duration                                 : 1 h 26 min

Bit rate mode                            : Constant

Bit rate                                 : 192 kb/s

Channel(s)                               : 2 channels

Channel layout                           : L R

Sampling rate                            : 48.0 kHz

Frame rate                               : 31.250 FPS (1536 SPF)

Bit depth                                : 32 bits

Compression mode                         : Lossy

Stream size                              : 118 MiB (1%)

Title                                    : English commentary

Language                                 : English

Service kind                             : Complete Main

Default                                  : No

Forced                                   : No



Text #1

ID                                       : 4

Format                                   : PGS

Codec ID                                 : S_HDMV/PGS

Codec ID/Info                            : Picture based subtitle format used on BDs/HD-DVDs

Duration                                 : 1 h 25 min

Bit rate                                 : 31.3 kb/s

Count of elements                        : 2102

Stream size                              : 19.1 MiB (0%)

Title                                    : English (SDH)

Language                                 : English

Default                                  : No

Forced                                   : No



Text #2

ID                                       : 5

Format                                   : PGS

Codec ID                                 : S_HDMV/PGS

Codec ID/Info                            : Picture based subtitle format used on BDs/HD-DVDs

Duration                                 : 1 h 25 min

Bit rate                                 : 22.9 kb/s

Count of elements                        : 1752

Stream size                              : 14.0 MiB (0%)

Title                                    : French

Language                                 : French

Default                                  : No

Forced                                   : No



Text #3

ID                                       : 6

Format                                   : PGS

Codec ID                                 : S_HDMV/PGS

Codec ID/Info                            : Picture based subtitle format used on BDs/HD-DVDs

Duration                                 : 1 h 24 min

Bit rate                                 : 29.7 kb/s

Count of elements                        : 1968

Stream size                              : 18.0 MiB (0%)

Title                                    : German

Language                                 : German

Default                                  : No

Forced                                   : No



Text #4

ID                                       : 7

Format                                   : PGS

Codec ID                                 : S_HDMV/PGS

Codec ID/Info                            : Picture based subtitle format used on BDs/HD-DVDs

Duration                                 : 1 h 25 min

Bit rate                                 : 27.9 kb/s

Count of elements                        : 1878

Stream size                              : 17.0 MiB (0%)

Title                                    : Spanish

Language                                 : Spanish

Default                                  : No

Forced                                   : No



Text #5

ID                                       : 8

Format                                   : PGS

Codec ID                                 : S_HDMV/PGS

Codec ID/Info                            : Picture based subtitle format used on BDs/HD-DVDs

Duration                                 : 1 h 24 min

Bit rate                                 : 29.5 kb/s

Count of elements                        : 1878

Stream size                              : 17.9 MiB (0%)

Title                                    : Portuguese

Language                                 : Portuguese

Default                                  : No

Forced                                   : No



Menu

00:00:00.000                             : :00:00:00.000

00:03:39.010                             : :00:03:39.010

00:05:47.847                             : :00:05:47.847

00:06:43.320                             : :00:06:43.320

00:07:49.052                             : :00:07:49.052

00:11:01.202                             : :00:11:01.202

00:13:28.641                             : :00:13:28.641

00:15:01.526                             : :00:15:01.526

00:18:12.925                             : :00:18:12.925

00:22:55.416                             : :00:22:55.416

00:25:42.291                             : :00:25:42.291

00:28:20.073                             : :00:28:20.073

00:33:16.411                             : :00:33:16.411

00:36:44.202                             : :00:36:44.202

00:38:35.146                             : :00:38:35.146

00:42:58.117                             : :00:42:58.117

00:46:30.454                             : :00:46:30.454

00:47:49.158                             : :00:47:49.158

00:52:26.894                             : :00:52:26.894

00:54:37.483                             : :00:54:37.483

00:58:17.452                             : :00:58:17.452

01:00:40.303                             : :01:00:40.303

01:04:04.591                             : :01:04:04.591

01:07:41.891                             : :01:07:41.891

01:10:39.527                             : :01:10:39.527

01:12:20.795                             : :01:12:20.795

01:14:09.111                             : :01:14:09.111

01:15:41.078                             : :01:15:41.078

01:19:33.310                             : :01:19:33.310

01:21:59.540                             : :01:21:59.540

Discussion

Comments 0

Post Your Comment

Files in this torrent

FILENAMESIZE
Ace Ventura - Pet Detective (1994) (1080p BDRip x265 10bit DTS 5.1 - TheSickle)[TAoE].mkv9.9 GB

Alternative Torrents for 'Ace Ventura Pet Detective bit DTS TheSickle'.

There are no alternative torrents found.