Red 2 2013 BDRip1080p US Transfer(Killbrain)_[scarabey Org]

Torrent Details

Red 2 2013 BDRip1080p US Transfer(Killbrain)_<span style=color:#fc9c6d>[scarabey org]</span>

NAME
Red 2 2013 BDRip1080p US Transfer(Killbrain)_[scarabey org].torrent
CATEGORY
Movies
INFOHASH
899a6de5f0cc125af2b0118353dfc79a046b16dd
SIZE
8.7 GB in 1 file
ADDED
Uploaded on 21-07-2020 by our crawler pet called "Spidey".
SWARM
0 seeders & 0 peers
RATING
No votes yet.

Please login to vote for this torrent.


Description

РЭД 2 / Red 2

«Отдохнём на том свете»







Страна: США, Франция, Канада

Студия: DC Entertainment, Di Bonaventura Pictures, Etalon film

Жанр: боевик, комедия

Год выпуска: 2013

Продолжительность: 01:55:48



Перевод: русский профессиональный (полное дублирование) [Лицензия, BD RUS]

Оригинальная аудиодорожка: английская

Русские субтитры: есть

Режиссер: Дин Паризо / Dean Parisot

В ролях: Брюс Уиллис, Джон Малкович, Мэри-Луиз Паркер, Кэтрин Зета-Джонс, Ли Бён Хон, Энтони Хопкинс, Хелен Миррен, Брайан Кокс, Дэвид Тьюлис, Чжон Кон Ли

Роли дублировали: Владимир Герасимов, Леонид Белозорович, Ирина Киреева, Елена Соловьева, Даниил Эльдаров





Вышедший на пенсию тайный агент ЦРУ Фрэнк Мозес объединяется с командой старых друзей, элитных оперативников, с целью найти пропавшее оружие массового уничтожения. Чтобы его заполучить, придётся прорываться сквозь армии безжалостных наёмников, террористов и всегда жаждущих власти политиков.

Миссия приводит Фрэнка и его разношёрстную команду вышедших на пенсию убийц в Париж, Лондон и Москву. В их арсенале есть только хитрость, старая сноровка и помощь друг друга, чтобы спасти мир и при этом самим остаться в живых.



Тип релиза: BDRip 1080p (исходник: РЭД 2 / Red 2 (2013) Blu-ray Disc [USA Transfer] -BLUEBIRD)

Контейнер: MKV

Видео кодек: x264

Аудио кодек: AC3

Видео: AVC / [email protected] / 2 pass / 23,976 fps / 1920x800p (2,40:1) / 9,5 Mbps / 0.258

Аудио 1: AC3 / 5.1 ch / 640 kbps / Русский дубляж, BD RUS

Аудио 2: AC3 / 5.1 ch / 640 kbps / Английский original, BD US

Субтитры: [softsub SRT]

Русские Full, BD RUS

Английские Full, BD US

Английские SDH, mod. BD US

Английские SDH-COLOR, mod. BD US

Дополнительно: Сохранены оригинальные чаптеры (главы) как на Blu-ray



Раздача от:



АНОНСЫ МОИХ РАЗДАЧ!











Дополнительно о фильме:

Знаете ли вы, что...

Ошибки в фильме:

Технические детали съёмки:

Производство, студия дубляжа, прокат:

Log x264:x264 [info]: frame I:1700 Avg QP:17.83 size:249077

x264 [info]: frame P:36806 Avg QP:19.11 size: 81192

x264 [info]: frame B:128102 Avg QP:21.67 size: 37719

MediaInfo:Общее

Уникальный идентификатор : 220814251738204687144772849048956647699 (0xA61F472830BE9BEEB1A83E55F7AF3913)

Полное имя : F:Скачка торрентRed.2.2013.BDRip1080p.US.Transfer(Killbrain)_[scarabey.org].mkv

Формат : Matroska

Версия формата : Version 2

Размер файла : 8,72 Гбайт

Продолжительность : 1 ч. 55 м.

Общий поток : 10,8 Мбит/сек

Название фильма : Red 2 (2013) by Killbrain [USA Transfer]

Дата кодирования : UTC 2013-12-20 22:58:15

Программа кодирования : mkvmerge v5.8.0 ('No Sleep / Pillow') built on Sep 2 2012 15:37:04

Библиотека кодирования : libebml v1.2.3 + libmatroska v1.3.0



Видео

Идентификатор : 1

Формат : AVC

Формат/Информация : Advanced Video Codec

Профиль формата : [email protected]

Параметр CABAC формата : Да

Параметр ReFrames формата : 4 кадра

Идентификатор кодека : V_MPEG4/ISO/AVC

Продолжительность : 1 ч. 55 м.

Битрейт : 9500 Кбит/сек

Ширина : 1920 пикселей

Высота : 800 пикселей

Соотношение сторон : 2,40:1

Режим частоты кадров : Постоянный

Частота кадров : 23,976 кадра/сек

Цветовое пространство : YUV

Субдискретизация насыщенности : 4:2:0

Битовая глубина : 8 бит

Тип развёртки : Прогрессивная

Бит/(Пиксели*Кадры) : 0.258

Размер потока : 7,51 Гбайт (86%)

Заголовок : Red 2 (2013)

Библиотека кодирования : x264 core 138 r2358 9e941d1

Настройки программы : cabac=1 / ref=4 / deblock=1:-3:-3 / analyse=0x3:0x113 / me=umh / subme=10 / psy=1 / psy_rd=1.00:0.15 / mixed_ref=1 / me_range=32 / chroma_me=1 / trellis=2 / 8x8dct=1 / cqm=0 / deadzone=21,11 / fast_pskip=0 / chroma_qp_offset=-3 / threads=3 / lookahead_threads=1 / sliced_threads=0 / nr=0 / decimate=0 / interlaced=0 / bluray_compat=0 / constrained_intra=0 / bframes=6 / b_pyramid=2 / b_adapt=2 / b_bias=0 / direct=3 / weightb=1 / open_gop=0 / weightp=2 / keyint=240 / keyint_min=24 / scenecut=40 / intra_refresh=0 / rc_lookahead=60 / rc=2pass / mbtree=0 / bitrate=9500 / ratetol=1.0 / qcomp=0.65 / qpmin=0 / qpmax=69 / qpstep=4 / cplxblur=20.0 / qblur=0.5 / vbv_maxrate=40000 / vbv_bufsize=30000 / nal_hrd=none / ip_ratio=1.40 / pb_ratio=1.30 / aq=1:0.90

Язык : English

Default : Да

Forced : Нет



Аудио #1

Идентификатор : 2

Формат : AC-3

Формат/Информация : Audio Coding 3

Расширение режима : CM (complete main)

Параметр Endianness формата : Big

Идентификатор кодека : A_AC3

Продолжительность : 1 ч. 55 м.

Вид битрейта : Постоянный

Битрейт : 640 Кбит/сек

Каналы : 6 каналов

Расположение каналов : Front: L C R, Side: L R, LFE

Частота : 48,0 КГц

Битовая глубина : 16 бит

Метод сжатия : С потерями

Размер потока : 530 Мбайт (6%)

Заголовок : AC3 / 5.1 ch / 640 kbps / Русский дубляж, BD RUS

Язык : Russian

Default : Да

Forced : Нет



Аудио #2

Идентификатор : 3

Формат : AC-3

Формат/Информация : Audio Coding 3

Расширение режима : CM (complete main)

Параметр Endianness формата : Big

Идентификатор кодека : A_AC3

Продолжительность : 1 ч. 55 м.

Вид битрейта : Постоянный

Битрейт : 640 Кбит/сек

Каналы : 6 каналов

Расположение каналов : Front: L C R, Side: L R, LFE

Частота : 48,0 КГц

Битовая глубина : 16 бит

Метод сжатия : С потерями

Размер потока : 530 Мбайт (6%)

Заголовок : AC3 / 5.1 ch / 640 kbps / Английский original, BD US

Язык : English

Default : Нет

Forced : Нет



Текст #1

Идентификатор : 4

Формат : UTF-8

Идентификатор кодека : S_TEXT/UTF8

Идентификатор кодека/Информация : UTF-8 Plain Text

Заголовок : Full, BD RUS

Язык : Russian

Default : Нет

Forced : Нет



Текст #2

Идентификатор : 5

Формат : UTF-8

Идентификатор кодека : S_TEXT/UTF8

Идентификатор кодека/Информация : UTF-8 Plain Text

Заголовок : Full, BD US

Язык : English

Default : Нет

Forced : Нет



Текст #3

Идентификатор : 6

Формат : UTF-8

Идентификатор кодека : S_TEXT/UTF8

Идентификатор кодека/Информация : UTF-8 Plain Text

Заголовок : SDH, mod. BD US

Язык : English

Default : Нет

Forced : Нет



Текст #4

Идентификатор : 7

Формат : UTF-8

Идентификатор кодека : S_TEXT/UTF8

Идентификатор кодека/Информация : UTF-8 Plain Text

Заголовок : SDH-COLOR, mod. BD US

Язык : English

Default : Нет

Forced : Нет



Меню

00:00:00.000 : :Chapter 01

00:17:54.656 : :Chapter 02

00:33:31.676 : :Chapter 03

00:47:56.707 : :Chapter 04

01:03:03.029 : :Chapter 05

01:19:43.904 : :Chapter 06

01:35:37.815 : :Chapter 07

01:47:06.962 : :Chapter 08

Скриншоты сравнения BD US и BD RUS:BD US v BD RUS









Скриншоты:

Немного отзывов с Кинопоиска.Ру:



Discussion

Comments 0

Post Your Comment

Files in this torrent

FILENAMESIZE
Red.2.2013.BDRip1080p.US.Transfer(Killbrain)_[scarabey.org].mkv8.7 GB

Alternative Torrents for 'Red BDRipp US TransferKillbrain'.

There are no alternative torrents found.