Harpoon 2019 720p

Torrent Details

Harpoon 2019 720p

NAME
Harpoon 2019 720p.torrent
CATEGORY
Movies
INFOHASH
1fa057ea391f070ba0c720d85b56bdaf9f712590
SIZE
5.1 GB in 1 file
ADDED
Uploaded on 22-07-2020 by our crawler pet called "Spidey".
SWARM
0 seeders & 0 peers
RATING
No votes yet.

Please login to vote for this torrent.


Description

Информация о фильме

Название: Гарпун

Оригинальное название: Harpoon

Год выхода: 2019

Жанр: триллер, комедия

Режиссер: Роб Грант

В ролях: Манро Чэмберс, Кристофер Грэй, Эмили Тайра, Бретт Гельман, Кертис Дэвид Хардер, Роб Грант, Майкл Питерсон



О фильме:

Джона, Саша и Ричард дружили с детства, хоть у них и было мало общего. Троица отправляется покататься на яхте, когда Ричард выясняет, что Саша изменяет ему с лучшим другом. Потасовка и пререкания заканчиваются тем, что ребята выкидывают все потенциально опасные предметы за борт и обещают не убивать друг друга, когда выясняется, что яхта не заводится.







Страна: Канада

Продолжительность: 01:22:32

Перевод: Одноголосый любительский Psychotronic



Файл

Кодек: h.264

Качество: BDRip 720 [Harpoon.2019.720p.BluRay.DD5.1.x264-PTer]

Видео: 1280х720, 16:9, 7647 Кбит/сек, 23,976 кадра/сек

Звук:

AC3, 5.1, 48,0 КГц, 640 Кбит/сек, Русский (Psychotronic)

AC3, 5.1, 48,0 КГц, 640 Кбит/сек, Английский

Субтитры: русские, английские



Семпл



Трейлер



Скриншоты



MediaInfoОбщее

Уникальный идентификатор : 327641852936095309895542736618524769964 (0xF67D868B209853D3BB8D89F6267FFEAC)

Полное имя : F:РаздачаHarpoon.2019.720p.mkv

Формат : Matroska

Версия формата : Version 4 / Version 2

Размер файла : 5,15 Гбайт

Продолжительность : 1 ч. 22 м.

Общий поток : 8930 Кбит/сек

Дата кодирования : UTC 2020-07-22 15:38:27

Программа кодирования : mkvmerge v25.0.0 ('Prog Noir') 64-bit

Библиотека кодирования : libebml v1.3.6 + libmatroska v1.4.9



Видео

Идентификатор : 1

Формат : AVC

Формат/Информация : Advanced Video Codec

Профиль формата : [email protected]

Параметр CABAC формата : Да

Параметр ReFrames формата : 9 кадров

Идентификатор кодека : V_MPEG4/ISO/AVC

Продолжительность : 1 ч. 22 м.

Битрейт : 7647 Кбит/сек

Ширина : 1280 пикселей

Высота : 720 пикселей

Соотношение сторон : 16:9

Режим частоты кадров : Постоянный

Частота кадров : 23,976 (24000/1001) кадра/сек

Цветовое пространство : YUV

Субдискретизация насыщенности : 4:2:0

Битовая глубина : 8 бит

Тип развёртки : Прогрессивная

Бит/(Пиксели*Кадры) : 0.346

Размер потока : 4,41 Гбайт (86%)

Библиотека кодирования : x264 core 158 r2984+47 456d10a t_mod_New [[email protected] X86_64]

Настройки программы : cabac=1 / ref=9 / deblock=1:-3:-3 / analyse=0x3:0x133 / me=umh / subme=11 / psy=1 / fade_compensate=0.00 / psy_rd=1.00:0.00 / mixed_ref=1 / me_range=32 / chroma_me=1 / trellis=2 / 8x8dct=1 / cqm=0 / deadzone=21,11 / fast_pskip=0 / chroma_qp_offset=-2 / threads=12 / lookahead_threads=3 / sliced_threads=0 / nr=0 / decimate=0 / interlaced=0 / bluray_compat=0 / constrained_intra=0 / fgo=0 / bframes=10 / b_pyramid=2 / b_adapt=2 / b_bias=0 / direct=3 / weightb=1 / open_gop=0 / weightp=2 / keyint=250 / keyint_min=23 / scenecut=40 / intra_refresh=0 / rc_lookahead=250 / rc=crf / mbtree=0 / crf=19.4000 / qcomp=0.65 / qpmin=0:0:0 / qpmax=69:69:69 / qpstep=4 / vbv_maxrate=62500 / vbv_bufsize=78125 / crf_max=0.0 / nal_hrd=none / filler=0 / ip_ratio=1.30 / pb_ratio=1.20 / aq=3:0.80 / aq-sensitivity=10.00 / aq-factor=1.00:1.00:1.00 / aq2=0 / aq3=0

Язык : English

Default : Да

Forced : Нет

Цветовой диапазон : Limited

Основные цвета : BT.709

Коэффициенты матрицы : BT.709



Аудио #1

Идентификатор : 2

Формат : AC-3

Формат/Информация : Audio Coding 3

Расширение режима : CM (complete main)

Параметр Endianness формата : Big

Идентификатор кодека : A_AC3

Продолжительность : 1 ч. 22 м.

Вид битрейта : Постоянный

Битрейт : 640 Кбит/сек

Каналы : 6 каналов

Расположение каналов : Front: L C R, Side: L R, LFE

Частота : 48,0 КГц

Частота кадров : 31,250 кадров/сек (1536 spf)

Метод сжатия : С потерями

Размер потока : 378 Мбайт (7%)

Заголовок : Psychotronic

Язык : Russian

Default : Да

Forced : Нет



Аудио #2

Идентификатор : 3

Формат : AC-3

Формат/Информация : Audio Coding 3

Расширение режима : CM (complete main)

Параметр Endianness формата : Big

Идентификатор кодека : A_AC3

Продолжительность : 1 ч. 22 м.

Вид битрейта : Постоянный

Битрейт : 640 Кбит/сек

Каналы : 6 каналов

Расположение каналов : Front: L C R, Side: L R, LFE

Частота : 48,0 КГц

Частота кадров : 31,250 кадров/сек (1536 spf)

Метод сжатия : С потерями

Размер потока : 378 Мбайт (7%)

Заголовок : Original

Язык : English

Default : Нет

Forced : Нет



Текст #1

Идентификатор : 4

Формат : UTF-8

Идентификатор кодека : S_TEXT/UTF8

Идентификатор кодека/Информация : UTF-8 Plain Text

Продолжительность : 1 ч. 18 м.

Битрейт : 81 бит/сек

Count of elements : 835

Размер потока : 46,6 Кбайт (0%)

Заголовок : Russian

Язык : Russian

Default : Нет

Forced : Нет



Текст #2

Идентификатор : 5

Формат : UTF-8

Идентификатор кодека : S_TEXT/UTF8

Идентификатор кодека/Информация : UTF-8 Plain Text

Продолжительность : 1 ч. 22 м.

Битрейт : 58 бит/сек

Count of elements : 941

Размер потока : 35,1 Кбайт (0%)

Заголовок : English

Язык : English

Default : Нет

Forced : Нет



Меню

00:00:00.000 : en:Chapter 1

00:07:29.490 : en:Chapter 2

00:11:41.492 : en:Chapter 3

00:22:11.163 : en:Chapter 4

00:29:24.804 : en:Chapter 5

00:35:49.355 : en:Chapter 6

00:42:18.911 : en:Chapter 7

00:47:36.311 : en:Chapter 8

00:56:48.154 : en:Chapter 9

01:03:57.750 : en:Chapter 10

01:10:51.038 : en:Chapter 11

01:15:23.602 : en:Chapter 12

Discussion

Comments 0

Post Your Comment

Files in this torrent

FILENAMESIZE
Harpoon.2019.720p.mkv5.1 GB

Alternative Torrents for 'Harpoon'.

TORRENT NAMEADDEDSIZESEEDSPEERSHEALTH
11/16/20201.4 GB00
11/16/2020668 MB00
11/16/20201.4 GB00
11/16/20201.3 GB00
11/15/20203.3 GB00
11/15/2020699 MB00
9/30/20201.8 GB00
9/7/20201.5 GB00
8/22/20202.1 GB00
8/19/20204.2 GB00
7/23/20202.3 GB00
7/22/20201.5 GB00
7/22/20205.1 GB00
7/22/202010.3 GB00
7/13/20207.8 GB00