Harpoon 2019

Torrent Details

Harpoon 2019

NAME
Harpoon 2019.torrent
CATEGORY
Movies
INFOHASH
5be0e8fa326c5d822d3689dd2235087cf0e2d0a3
SIZE
1.5 GB in 1 file
ADDED
Uploaded on 22-07-2020 by our crawler pet called "Spidey".
SWARM
0 seeders & 0 peers
RATING
No votes yet.

Please login to vote for this torrent.


Description

Информация о фильме

Название: Гарпун

Оригинальное название: Harpoon

Год выхода: 2019

Жанр: триллер, комедия

Режиссер: Роб Грант

В ролях: Манро Чэмберс, Кристофер Грэй, Эмили Тайра, Бретт Гельман, Кертис Дэвид Хардер, Роб Грант, Майкл Питерсон



О фильме:

Джона, Саша и Ричард дружили с детства, хоть у них и было мало общего. Троица отправляется покататься на яхте, когда Ричард выясняет, что Саша изменяет ему с лучшим другом. Потасовка и пререкания заканчиваются тем, что ребята выкидывают все потенциально опасные предметы за борт и обещают не убивать друг друга, когда выясняется, что яхта не заводится.







Страна: Канада

Продолжительность: 01:22:32

Перевод: Одноголосый любительский Psychotronic



Файл

Кодек: h.264

Качество: HDRip-AVC [Harpoon.2019.1080p.BluRay.DD+5.1.x264-PTer]

Видео: 720х406, 16:9, 2248 Кбит/сек, 23,976 кадра/сек

Звук:

AC3, 2.0, 48,0 КГц, 192 Кбит/сек, Русский (Psychotronic)

AC3, 2.0, 48,0 КГц, 192 Кбит/сек, Английский

Субтитры: русские, английские



Семпл



Трейлер



Скриншоты



MediaInfoОбщее

Уникальный идентификатор : 206134581395047434474376677902926789292 (0x9B141387A05D47647C5234FFB818BAAC)

Полное имя : F:РаздачаHarpoon.2019.mkv

Формат : Matroska

Версия формата : Version 4 / Version 2

Размер файла : 1,52 Гбайт

Продолжительность : 1 ч. 22 м.

Общий поток : 2634 Кбит/сек

Дата кодирования : UTC 2020-07-22 15:43:20

Программа кодирования : mkvmerge v25.0.0 ('Prog Noir') 64-bit

Библиотека кодирования : libebml v1.3.6 + libmatroska v1.4.9



Видео

Идентификатор : 1

Формат : AVC

Формат/Информация : Advanced Video Codec

Профиль формата : [email protected]

Параметр CABAC формата : Да

Параметр ReFrames формата : 11 кадров

Идентификатор кодека : V_MPEG4/ISO/AVC

Продолжительность : 1 ч. 22 м.

Битрейт : 2248 Кбит/сек

Ширина : 720 пикселей

Высота : 406 пикселей

Соотношение сторон : 16:9

Режим частоты кадров : Постоянный

Частота кадров : 23,976 (24000/1001) кадра/сек

Цветовое пространство : YUV

Субдискретизация насыщенности : 4:2:0

Битовая глубина : 8 бит

Тип развёртки : Прогрессивная

Бит/(Пиксели*Кадры) : 0.321

Размер потока : 1,30 Гбайт (85%)

Библиотека кодирования : x264 core 157 r2958 57baac4

Настройки программы : cabac=1 / ref=11 / deblock=1:-2:-3 / analyse=0x3:0x133 / me=umh / subme=10 / psy=1 / psy_rd=1.00:0.15 / mixed_ref=1 / me_range=32 / chroma_me=1 / trellis=2 / 8x8dct=1 / cqm=0 / deadzone=21,11 / fast_pskip=0 / chroma_qp_offset=-3 / threads=5 / lookahead_threads=1 / sliced_threads=0 / nr=0 / decimate=1 / interlaced=0 / bluray_compat=0 / constrained_intra=0 / bframes=10 / b_pyramid=2 / b_adapt=2 / b_bias=0 / direct=3 / weightb=1 / open_gop=0 / weightp=2 / keyint=240 / keyint_min=24 / scenecut=40 / intra_refresh=0 / rc=2pass / mbtree=0 / bitrate=2248 / ratetol=1.0 / qcomp=0.65 / qpmin=0 / qpmax=69 / qpstep=4 / cplxblur=20.0 / qblur=0.5 / ip_ratio=1.40 / pb_ratio=1.30 / aq=2:0.70

Язык : English

Default : Да

Forced : Нет

Цветовой диапазон : Limited

Основные цвета : BT.709

Коэффициенты матрицы : BT.709



Аудио #1

Идентификатор : 2

Формат : AC-3

Формат/Информация : Audio Coding 3

Расширение режима : CM (complete main)

Параметр Endianness формата : Big

Идентификатор кодека : A_AC3

Продолжительность : 1 ч. 22 м.

Вид битрейта : Постоянный

Битрейт : 192 Кбит/сек

Каналы : 2 канала

Расположение каналов : Front: L R

Частота : 48,0 КГц

Частота кадров : 31,250 кадров/сек (1536 spf)

Метод сжатия : С потерями

Размер потока : 113 Мбайт (7%)

Заголовок : Psychotronic

Язык : Russian

Default : Да

Forced : Нет



Аудио #2

Идентификатор : 3

Формат : AC-3

Формат/Информация : Audio Coding 3

Расширение режима : CM (complete main)

Параметр Endianness формата : Big

Идентификатор кодека : A_AC3

Продолжительность : 1 ч. 22 м.

Вид битрейта : Постоянный

Битрейт : 192 Кбит/сек

Каналы : 2 канала

Расположение каналов : Front: L R

Частота : 48,0 КГц

Частота кадров : 31,250 кадров/сек (1536 spf)

Метод сжатия : С потерями

Размер потока : 113 Мбайт (7%)

Заголовок : Origina;

Язык : English

Default : Нет

Forced : Нет



Текст #1

Идентификатор : 4

Формат : UTF-8

Идентификатор кодека : S_TEXT/UTF8

Идентификатор кодека/Информация : UTF-8 Plain Text

Продолжительность : 1 ч. 18 м.

Битрейт : 81 бит/сек

Count of elements : 835

Размер потока : 46,6 Кбайт (0%)

Заголовок : Russian

Язык : Russian

Default : Нет

Forced : Нет



Текст #2

Идентификатор : 5

Формат : UTF-8

Идентификатор кодека : S_TEXT/UTF8

Идентификатор кодека/Информация : UTF-8 Plain Text

Продолжительность : 1 ч. 22 м.

Битрейт : 58 бит/сек

Count of elements : 941

Размер потока : 35,1 Кбайт (0%)

Заголовок : English

Язык : English

Default : Нет

Forced : Нет

Discussion

Comments 0

Post Your Comment

Files in this torrent

FILENAMESIZE
Harpoon.2019.mkv1.5 GB

Alternative Torrents for 'Harpoon'.

TORRENT NAMEADDEDSIZESEEDSPEERSHEALTH
9/30/20201.8 GB10
11/16/20201.4 GB00
11/16/2020668 MB00
11/16/20201.4 GB00
11/16/20201.3 GB00
11/15/20203.3 GB00
11/15/2020699 MB00
9/7/20201.5 GB00
8/22/20202.1 GB00
8/19/20204.2 GB00
7/23/20202.3 GB00
7/22/20201.5 GB00
7/22/20205.1 GB00
7/22/202010.3 GB00
7/13/20207.8 GB00