Palm Springs (2020) (1080p HULU Webrip X265 10bit EAC3 5.1 - HxD) [TAoE]

Torrent Details

Palm Springs (2020) (1080p HULU Webrip x265 10bit EAC3 5.1 - HxD) <span style=color:#fc9c6d>[TAoE]</span>
Palm Springs (2020) (1080p HULU Webrip x265 10bit EAC3 5.1 - HxD) <span style=color:#fc9c6d>[TAoE]</span>

NAME
Palm Springs (2020) (1080p HULU Webrip x265 10bit EAC3 5.1 - HxD) [TAoE].torrent
CATEGORY
Movies
INFOHASH
dc3c40d6b4acba5095ee9b9ccddf9f4f1eb23851
SIZE
1.8 GB in 1 file
ADDED
Uploaded on 23-07-2020 by our crawler pet called "Spidey".
SWARM
0 seeders & 0 peers
RATING
No votes yet.

Please login to vote for this torrent.


Description



Hello everyone,

We are TAoE, a small team of passionate encoders who love encoding. We try our best to provide you with high quality releases.



Requests for movies and shows are welcome.

We have a form for encode requests which can be found here

Encode requests form

submit your request and it will be added to our encoding request list

You can view our encoding request list here

Encode requests list





When or if we encode it will depend on if we can obtain a good source to encode with and

if one of the TAoE encoders chooses to encode it. Unfortunately we are not able to encode everything,

new members are welcome as that helps us encode more content!



If you would like to join TAoE submit your request here!

TAoE member applications form









Palm Springs (2020) IMDB























Media Information



General

Unique ID                                : 116044730566763431769584408668867503170 (0x574D66F337666E0C67F3143C7545A442)

Complete name                            : Palm Springs (2020) (1080p HULU Webrip x265 10bit EAC3 5.1 - HxD) [TAoE].mkv

Format                                   : Matroska

Format version                           : Version 4

File size                                : 1.77 GiB

Duration                                 : 1 h 29 min

Overall bit rate                         : 2 816 kb/s

Movie name                               : Palm Springs (2020) (1080p HULU Webrip x265 10bit EAC3 5.1 - HxD) [TAoE].mkv

Encoded date                             : UTC 2020-07-22 11:17:14

Writing application                      : mkvmerge v44.0.0 ('Domino') 64-bit

Writing library                          : libebml v1.3.10 + libmatroska v1.5.2



Video

ID                                       : 1

Format                                   : HEVC

Format/Info                              : High Efficiency Video Coding

Format profile                           : Main [email protected]@Main

Codec ID                                 : V_MPEGH/ISO/HEVC

Duration                                 : 1 h 29 min

Bit rate                                 : 2 558 kb/s

Width                                    : 1 920 pixels

Height                                   : 1 080 pixels

Display aspect ratio                     : 16:9

Frame rate mode                          : Constant

Frame rate                               : 24.000 FPS

Color space                              : YUV

Chroma subsampling                       : 4:2:0

Bit depth                                : 10 bits

Bits/(Pixel*Frame)                       : 0.051

Stream size                              : 1.61 GiB (91%)

Writing library                          : x265 3.3+2-gbe2d82093:[Windows][GCC 9.2.0][64 bit] 10bit

Encoding settings                        : cpuid=1111039 / frame-threads=3 / numa-pools=8 / wpp / no-pmode / no-pme / no-psnr / no-ssim / log-level=2 / input-csp=1 / input-res=1920x1080 / interlace=0 / total-frames=129591 / level-idc=0 / high-tier=1 / uhd-bd=0 / ref=4 / no-allow-non-conformance / no-repeat-headers / annexb / no-aud / no-hrd / info / hash=0 / no-temporal-layers / open-gop / min-keyint=24 / keyint=250 / gop-lookahead=0 / bframes=8 / b-adapt=2 / b-pyramid / bframe-bias=0 / rc-lookahead=80 / lookahead-slices=4 / scenecut=40 / hist-scenecut=0 / radl=0 / no-splice / no-intra-refresh / ctu=64 / min-cu-size=8 / no-rect / no-amp / max-tu-size=32 / tu-inter-depth=1 / tu-intra-depth=1 / limit-tu=0 / rdoq-level=2 / dynamic-rd=0.00 / no-ssim-rd / signhide / no-tskip / nr-intra=0 / nr-inter=0 / no-constrained-intra / no-strong-intra-smoothing / max-merge=3 / limit-refs=3 / limit-modes / me=3 / subme=5 / merange=57 / temporal-mvp / no-frame-dup / no-hme / weightp / no-weightb / no-analyze-src-pics / deblock=0:0 / sao / no-sao-non-deblock / rd=4 / selective-sao=4 / no-early-skip / rskip / no-fast-intra / no-tskip-fast / no-cu-lossless / no-b-intra / no-splitrd-skip / rdpenalty=0 / psy-rd=1.30 / psy-rdoq=2.00 / no-rd-refine / no-lossless / cbqpoffs=0 / crqpoffs=0 / rc=crf / crf=20.0 / qcomp=0.60 / qpstep=4 / stats-write=0 / stats-read=0 / ipratio=1.40 / pbratio=1.30 / aq-mode=4 / aq-strength=1.10 / cutree / zone-count=0 / no-strict-cbr / qg-size=32 / no-rc-grain / qpmax=69 / qpmin=0 / no-const-vbv / sar=0 / overscan=0 / videoformat=5 / range=0 / colorprim=2 / transfer=2 / colormatrix=2 / chromaloc=0 / display-window=0 / cll=0,0 / min-luma=0 / max-luma=1023 / log2-max-poc-lsb=8 / vui-timing-info / vui-hrd-info / slices=1 / no-opt-qp-pps / no-opt-ref-list-length-pps / no-multi-pass-opt-rps / scenecut-bias=0.05 / hist-threshold=0.01 / no-opt-cu-delta-qp / no-aq-motion / no-hdr10 / no-hdr10-opt / no-dhdr10-opt / no-idr-recovery-sei / analysis-reuse-level=0 / analysis-save-reuse-level=0 / analysis-load-reuse-level=0 / scale-factor=0 / refine-intra=0 / refine-inter=0 / refine-mv=1 / refine-ctu-distortion=0 / no-limit-sao / ctu-info=0 / no-lowpass-dct / refine-analysis-type=0 / copy-pic=1 / max-ausize-factor=1.0 / no-dynamic-refine / no-single-sei / no-hevc-aq / no-svt / no-field / qp-adaptation-range=1.00 / no-scenecut-aware-qpconformance-window-offsets / right=0 / bottom=0

Default                                  : Yes

Forced                                   : No



Audio

ID                                       : 2

Format                                   : E-AC-3

Format/Info                              : Enhanced AC-3

Commercial name                          : Dolby Digital Plus

Codec ID                                 : A_EAC3

Duration                                 : 1 h 29 min

Bit rate mode                            : Constant

Bit rate                                 : 256 kb/s

Channel(s)                               : 6 channels

Channel layout                           : L R C LFE Ls Rs

Sampling rate                            : 48.0 kHz

Frame rate                               : 31.250 FPS (1536 SPF)

Compression mode                         : Lossy

Stream size                              : 165 MiB (9%)

Language                                 : English

Service kind                             : Complete Main

Default                                  : No

Forced                                   : No



Text #1

ID                                       : 3

Format                                   : UTF-8

Codec ID                                 : S_TEXT/UTF8

Codec ID/Info                            : UTF-8 Plain Text

Duration                                 : 1 h 29 min

Bit rate                                 : 77 b/s

Count of elements                        : 1802

Stream size                              : 51.0 KiB (0%)

Language                                 : English

Default                                  : No

Forced                                   : No



Text #2

ID                                       : 4

Format                                   : UTF-8

Codec ID                                 : S_TEXT/UTF8

Codec ID/Info                            : UTF-8 Plain Text

Duration                                 : 1 h 29 min

Bit rate                                 : 77 b/s

Count of elements                        : 1920

Stream size                              : 50.8 KiB (0%)

Language                                 : Spanish

Default                                  : No

Forced                                   : No



Source

1080p HULU WEB-DL NTG

Discussion

Comments 0

Post Your Comment

Files in this torrent

FILENAMESIZE
Palm Springs (2020) (1080p HULU Webrip x265 10bit EAC3 5.1 - HxD) [TAoE].mkv1.8 GB

Alternative Torrents for 'Palm Springs HULU bit EAC HxD'.

TORRENT NAMEADDEDSIZESEEDSPEERSHEALTH
9/22/2020680 MB2828
9/19/20201.4 GB14344
9/10/20201 GB11419
9/18/2020265 MB1096
9/19/20201.7 GB10536
Yesterday463 MB10316
9/18/2020581 MB10221
9/22/2020261 MB1018
9/19/20202.2 GB10182
9/18/2020501 MB9922
9/18/2020501 MB9110
9/18/2020310 MB795
Yesterday230 MB7819
9/22/2020806 MB734
9/18/2020581 MB7310