Harpoon 2019 HDRip AVC ExKinoRay

Torrent Details

Harpoon 2019 HDRip AVC<span style=color:#fc9c6d> ExKinoRay</span>

NAME
Harpoon 2019 HDRip AVC ExKinoRay.torrent
CATEGORY
Movies
INFOHASH
3327fbe78d2525c95299441b604ea2239b2a07c1
SIZE
2.3 GB in 1 file
ADDED
Uploaded on 23-07-2020 by our crawler pet called "Spidey".
SWARM
0 seeders & 0 peers
RATING
No votes yet.

Please login to vote for this torrent.


Description

Название: Гарпун

Оригинальное название: Harpoon

Год выхода: 2019

Жанр: триллер, комедия

Режиссер: Роб Грант

В ролях: Манро Чэмберс, Кристофер Грэй, Эмили Тайра, Бретт Гельман, Кертис Дэвид Хардер, Роб Грант, Майкл Питерсон



О фильме: Джона, Саша и Ричард дружили с детства, хоть у них и было мало общего. Троица отправляется покататься на яхте, когда Ричард выясняет, что Саша изменяет ему с лучшим другом. Потасовка и пререкания заканчиваются тем, что ребята выкидывают все потенциально опасные предметы за борт и обещают не убивать друг друга, когда выясняется, что яхта не заводится.







Страна: Канада

Продолжительность: 01:22:32

Перевод: Одноголосый любительский Psychotronic



Формат: MKV

Качество: HDRip-AVC

Видео: MPEG-4 AVC, 1024x576 (16:9), 3560 kbps, 23.976 fps

Аудио : 48 kHz, AC3, 5.1, 448 Kbps | VO | RUS |

Субтитры: Русские (Psychotronic), английские







ОтчетМедиаИнфо

x264 [info]: frame I:1009 Avg QP:15.10 size: 90948

x264 [info]: frame P:22263 Avg QP:18.67 size: 36368

x264 [info]: frame B:95479 Avg QP:20.39 size: 13574

--------------------------------------------------------------

General

Unique ID : 206193050499492903867446386324614983222 (0x9B1F56477A1BE8C188F281F79950AE36)

Complete name : D:Harpoon.2019.HDRip.AVC.ExKinoRay.mkv

Format : Matroska

Format version : Version 2

File size : 2.31 GiB

Duration : 1 h 22 min

Overall bit rate : 3 999 kb/s

Movie name : Harpoon 2019 from ExKinoRay

Encoded date : UTC 2020-07-23 14:17:21

Writing application : mkvmerge v5.6.0 ('Kenya Kane') built on May 27 2012 16:44:04

Writing library : libebml v1.2.3 + libmatroska v1.3.0



Video

ID : 1

Format : AVC

Format/Info : Advanced Video Codec

Format profile : [email protected]

Format settings, CABAC : Yes

Format settings, ReFrames : 12 frames

Codec ID : V_MPEG4/ISO/AVC

Duration : 1 h 22 min

Bit rate : 3 560 kb/s

Width : 1 024 pixels

Height : 576 pixels

Display aspect ratio : 16:9

Frame rate mode : Constant

Frame rate : 23.976 (23976/1000) FPS

Color space : YUV

Chroma subsampling : 4:2:0

Bit depth : 8 bits

Scan type : Progressive

Bits/(Pixel*Frame) : 0.252

Stream size : 2.00 GiB (87%)

Title : Enigma

Writing library : x264 core 152 r2851 ba24899

Encoding settings : cabac=1 / ref=12 / deblock=1:-2:-2 / analyse=0x3:0x113 / me=esa / subme=10 / psy=1 / psy_rd=0.97:0.05 / mixed_ref=1 / me_range=32 / chroma_me=1 / trellis=2 / 8x8dct=1 / cqm=0 / deadzone=21,11 / fast_pskip=0 / chroma_qp_offset=-3 / threads=12 / lookahead_threads=3 / sliced_threads=0 / nr=0 / decimate=0 / interlaced=0 / bluray_compat=0 / constrained_intra=0 / bframes=10 / b_pyramid=2 / b_adapt=2 / b_bias=0 / direct=3 / weightb=1 / open_gop=0 / weightp=2 / keyint=240 / keyint_min=23 / scenecut=40 / intra_refresh=0 / rc=2pass / mbtree=0 / bitrate=3560 / ratetol=1.0 / qcomp=0.60 / qpmin=0 / qpmax=51 / qpstep=4 / cplxblur=20.0 / qblur=0.5 / ip_ratio=1.40 / pb_ratio=1.30 / aq=1:1.00

Language : English

Default : Yes

Forced : No

Color range : Limited

Color primaries : BT.709

Transfer characteristics : BT.709

Matrix coefficients : BT.709



Audio

ID : 2

Format : AC-3

Format/Info : Audio Coding 3

Mode extension : CM (complete main)

Format settings, Endianness : Big

Codec ID : A_AC3

Duration : 1 h 22 min

Bit rate mode : Constant

Bit rate : 448 kb/s

Channel(s) : 6 channels

Channel positions : Front: L C R, Side: L R, LFE

Sampling rate : 48.0 kHz

Frame rate : 31.250 FPS (1536 spf)

Compression mode : Lossy

Stream size : 265 MiB (11%)

Title : VO Psychotronic

Language : Russian

Default : Yes

Forced : No



Text #1

ID : 3

Format : UTF-8

Codec ID : S_TEXT/UTF8

Codec ID/Info : UTF-8 Plain Text

Title : Full

Language : Russian

Default : No

Forced : No



Text #2

ID : 4

Format : UTF-8

Codec ID : S_TEXT/UTF8

Codec ID/Info : UTF-8 Plain Text

Language : English

Default : No

Forced : No



Menu

00:00:00.000 : en:Chapter 1

00:07:29.490 : en:Chapter 2

00:11:41.492 : en:Chapter 3

00:22:11.163 : en:Chapter 4

00:29:24.804 : en:Chapter 5

00:35:49.355 : en:Chapter 6

00:42:18.911 : en:Chapter 7

00:47:36.311 : en:Chapter 8

00:56:48.154 : en:Chapter 9

01:03:57.750 : en:Chapter 10

01:10:51.038 : en:Chapter 11

01:15:23.602 : en:Chapter 12



















Релиз от:



Автор релиза:

Discussion

Comments 0

Post Your Comment

Files in this torrent

FILENAMESIZE
Harpoon.2019.HDRip.AVC.ExKinoRay.mkv2.3 GB

Alternative Torrents for 'Harpoon AVC'.

TORRENT NAMEADDEDSIZESEEDSPEERSHEALTH
7/23/20202.3 GB00
2/8/202023.7 GB00