Clueless 1995 BRRip 720p X264 AAC - PRiSTiNE [P2PDL]

Torrent Details

Clueless 1995 BRRip 720p x264 AAC - PRiSTiNE [P2PDL]

NAME
Clueless 1995 BRRip 720p x264 AAC - PRiSTiNE [P2PDL].torrent
CATEGORY
Movies
INFOHASH
23ad4d41dc189eb06352ba5502001f6bf2fadbe0
SIZE
602 MB in 5 files
ADDED
Uploaded on 21-03-2013 by our crawler pet called "Spidey".
SWARM
0 seeders & 0 peers
RATING
No votes yet.

Please login to vote for this torrent.


Description

Clueless 1995 BRRip 720p x264 AAC - PRiSTiNE
Quote:
Genre: Comedy | Romance
Plot: A US West Coast teen lifestyle parody centered around Cher,
a popular high school girl who spends her days playing match-maker,
helping her friends with fashion choices, and looking for a boyfriend.
Director: Amy Heckerling
Stars: Alicia Silverstone, Stacey Dash, Brittany Murphy
Rated: Rated PG-13 for sex related dialogue and some teen use of alcohol and drugs.
IMDb

Trailer
Quote: General
Complete name : Clueless 1995 BRRip 720p x264 AAC - PRiSTiNE.mp4
Format : MPEG-4
Format profile : Base Media
Codec ID : isom
File size : 593 MiB
Duration : 1h 37mn
Overall bit rate mode : Variable
Overall bit rate : 852 Kbps

Source : 720p BluRay HD4U (Thanks)

Video
Format : AVC
Format/Info : Advanced Video Codec
Format profile : [email protected]
Bit rate : 765 Kbps
Width : 1 280 pixels
Height : 720 pixels
Display aspect ratio : 16:9
Frame rate mode : Constant
Frame rate : 23.976 fps
Color space : YUV
Chroma subsampling : 4:2:0
Bit depth : 8 bits
Scan type : Progressive
Bits/(Pixel*Frame) : 0.035
Stream size : 532 MiB (90%)
Writing library : x264 core 129 r2245 bc13772

Audio
Format : AAC
Bit rate mode : Variable
Bit rate : 84.0 Kbps
Channel(s) : 2 channels
Channel positions : Front: L R
Sampling rate : 48.0 KHz / 24.0 KHz
Stream size : 58.4 MiB (10%)
Language : English

Subtitle : Yes (English)

Screens:








----------------------------------------------------------------------------------------------------
Quote:
Recommend to you to use latest version of VLC player. Install K-Lite Codec Pack or shark007 codecs
in case of any kind of problem in playback (For non-VLC Media Player users). Alternatively, install
Core AVC codecs, the fastest decoder that there is coupled with Community Center Codec Pack and play
on Windows Media Player Classic. Check sample to be sure.
Enjoy!

Greets to: VYTO, a2zRG, MusiK_KinG, TorDigger, StyLishSaLH and staff members at
ExtraTorrent, TPB, H33T, KAT, 1337x, PublicHD, Ahashare, BTScene, SilverTorrent, LimeTorrents, TorrentMafia,
P2PDL, and all others.

Encoder Notes: Encoder Notes: Looking For Early Access To Anything You Can Provide DVDScr, R5, DVDR, BluRay, Direct
Audio, Music Releases and Seedboxes. We require dedicated servers, so as to do more and fast releases of movies.
If You Got anything to offer contact us at "[email protected]".



Files in this torrent

FILENAMESIZE
Clueless 1995 BRRip 720p x264 AAC - PRiSTiNE/Clueless 1995 BRRip 720p x264 AAC - PRiSTiNE.mp4592.6 MB
Clueless 1995 BRRip 720p x264 AAC - PRiSTiNE/Clueless 1995 BRRip 720p x264 AAC - PRiSTiNE.nfo5.9 KB
Clueless 1995 BRRip 720p x264 AAC - PRiSTiNE/Clueless 1995 BRRip 720p x264 AAC - PRiSTiNE.srt127 KB
Direct download from www.TinyBay.in.txt35 B
Sample.mp49.5 MB

Alternative Torrents for 'Clueless AAC PRiSTiNE PPDL'.

There are no alternative torrents found.